Results 1 to 1 of 1
  1. #1
    Super Member www.desirulez.net
    Join Date
    Oct 2010
    Posts
    181

    T

    Default Soulja Boy Tell'em - Mean Mug ft. 50 Cent [750p][hd]

    Follow us on Social Media







    Soulja Boy Tell'em - Mean Mug ft. 50 Cent [750p][hd]

    General
    Complete name : Soulja Boy Tell'em - Mean Mug ft. 50 Cent\Soulja Boy Tell'em - Mean Mug ft. 50 Cent.mp4
    Format : MPEG-4
    Format profile : Base Media / Version 2
    Codec ID : mp42
    File size : 72.1 MiB
    Duration : 3mn 55s
    Overall bit rate : 2 568 Kbps


    Video
    ID : 1
    Format : AVC
    Format/Info : Advanced Video Codec
    Format profile : [email protected]
    Format settings, CABAC : Yes
    Format settings, ReFrames : 1 frame
    Codec ID : avc1
    Codec ID/Info : Advanced Video Coding
    Duration : 3mn 55s
    Bit rate mode : Variable
    Bit rate : 2 437 Kbps
    Maximum bit rate : 8 720 Kbps
    Width : 1 280 pixels
    Height : 720 pixels
    Display aspect ratio : 16:9
    Frame rate mode : Variable
    Frame rate : 23.976 fps
    Minimum frame rate : 17.241 fps
    Maximum frame rate : 24.390 fps
    Color space : YUV
    Chroma subsampling : 4:2:0
    Bit depth : 8 bits
    Scan type : Progressive
    Bits/(Pixel*Frame) : 0.110
    Stream size : 68.5 MiB (95%)

    Audio
    ID : 2
    Format : AAC
    Format/Info : Advanced Audio Codec
    Format version : Version 4
    Format profile : LC
    Format settings, SBR : No
    Codec ID : 40
    Duration : 3mn 55s
    Bit rate mode : Variable
    Bit rate : 125 Kbps
    Maximum bit rate : 151 Kbps
    Channel(s) : 2 channels
    Channel positions : Front: L R
    Sampling rate : 44.1 KHz
    Stream size : 3.51 MiB (5%)


    Code:
    http://www.fileserve.com/file/S7PmCBP

 

 

Posting Permissions

  • You may not post new threads
  • You may not post replies
  • You may not post attachments
  • You may not edit your posts
  •