Results 1 to 1 of 1
  1. #1
    Super Member www.desirulez.net
    Join Date
    Oct 2010
    Posts
    181

    T

    Default Shakira ft Wyclef Jean Hips Dont Lie at American Idol 720p

    Follow us on Social Media







    Shakira ft Wyclef Jean Hips Dont Lie at American Idol 720p

    General
    ID : 741 (0x2E5)
    Complete name : Shakira.ft.Wyclef.Jean.Hips.Dont.Lie.at.American.Idol.720p.HDTV.03.29.06.ts
    Format : MPEG-TS
    File size : 445 MiB
    Duration : 4mn 6s
    Overall bit rate : 15.1 Mbps

    Video
    ID : 17 (0x11)
    Menu ID : 1 (0x1)
    Format : MPEG Video
    Format_Commercial_IfAny : HDV 720p
    Format version : Version 2
    Format profile : [email protected]
    Format settings, BVOP : Yes
    Format settings, Matrix : Default
    Format settings, GOP : M=3, N=15
    Codec ID : 2
    Duration : 4mn 6s
    Bit rate mode : Variable
    Bit rate : 13.9 Mbps
    Nominal bit rate : 15.0 Mbps
    Maximum bit rate : 15.4 Mbps
    Width : 1 280 pixels
    Height : 720 pixels
    Display aspect ratio : 16:9
    Frame rate : 59.940 fps
    Standard : Component
    Color space : YUV
    Chroma subsampling : 4:2:0
    Bit depth : 8 bits
    Scan type : Progressive
    Compression mode : Lossy
    Bits/(Pixel*Frame) : 0.253
    Stream size : 410 MiB (92%)

    Audio
    ID : 20 (0x14)
    Menu ID : 1 (0x1)
    Format : AC-3
    Format/Info : Audio Coding 3
    Mode extension : CM (complete main)
    Codec ID : 129
    Duration : 4mn 6s
    Bit rate mode : Constant
    Bit rate : 448 Kbps
    Maximum bit rate : 504 Kbps
    Channel(s) : 6 channels
    Channel positions : Front: L C R, Side: L R, LFE
    Sampling rate : 48.0 KHz
    Bit depth : 16 bits
    Compression mode : Lossy
    Delay relative to video : -232ms
    Stream size : 13.2 MiB (3%)
    Language : English

    Text #1
    ID : 17 (0x11)608-1
    Menu ID : 1 (0x1)
    Format : EIA-608
    Muxing mode : A/53 / DTVCC Transport
    Muxing mode, more info : Muxed in Video #1
    Duration : 4mn 6s
    Stream size : 0.00 Byte (0%)

    Text #2
    ID : 17 (0x11)1
    Menu ID : 1 (0x1)
    Format : EIA-708
    Muxing mode : A/53 / DTVCC Transport
    Muxing mode, more info : Muxed in Video #1
    Duration : 4mn 6s
    Stream size : 0.00 Byte (0%)

    Menu
    ID : 16 (0x10)
    Menu ID : 1 (0x1)
    Duration : 4mn 6s
    List : 17 (0x11) (MPEG Video) / 20 (0x14) (AC-3, English)
    Language : / English
    Maximum bit rate : 16201200





    Code:
    http://www.fileserve.com/file/WtC63W8

 

 

Posting Permissions

  • You may not post new threads
  • You may not post replies
  • You may not post attachments
  • You may not edit your posts
  •