Results 1 to 1 of 1
  1. #1

    Thumbs up ScotontheLoop - TechnoloGic-MiX 2 (Videomix)

    Follow us on Social Media







    ScotontheLoop - TechnoloGic-MiX 2 (Videomix)



    INFO :
    Code:
    Format                           : MPEG-4
    Format profile                   : Base Media / Version 2
    Codec ID                         : mp42
    File size                        : 171 MiB
    Duration                         : 13mn 8s
    Overall bit rate                 : 1 816 Kbps
    Encoded date                     : UTC 2011-04-19 22:20:40
    Tagged date                      : UTC 2011-04-19 22:20:40
    
    Video
    ID                               : 2
    Format                           : AVC
    Format/Info                      : Advanced Video Codec
    Format profile                   : [email protected]
    Format settings, CABAC           : Yes
    Format settings, ReFrames        : 5 frames
    Codec ID                         : avc1
    Codec ID/Info                    : Advanced Video Coding
    Duration                         : 13mn 8s
    Bit rate mode                    : Variable
    Bit rate                         : 1 488 Kbps
    Width                            : 1 280 pixels
    Height                           : 720 pixels
    Display aspect ratio             : 16:9
    Frame rate mode                  : Constant
    Frame rate                       : 29.970 fps
    Standard                         : NTSC
    Color space                      : YUV
    Chroma subsampling               : 4:2:0
    Bit depth                        : 8 bits
    Scan type                        : Progressive
    Bits/(Pixel*Frame)               : 0.054
    Stream size                      : 140 MiB (82%)
    Language                         : English
    Encoded date                     : UTC 2011-04-19 22:20:40
    Tagged date                      : UTC 2011-04-19 22:20:40
    
    Audio
    ID                               : 1
    Format                           : AAC
    Format/Info                      : Advanced Audio Codec
    Format profile                   : LC
    Codec ID                         : 40
    Duration                         : 13mn 8s
    Bit rate mode                    : Constant
    Bit rate                         : 320 Kbps
    Channel(s)                       : 2 channels
    Channel positions                : Front: L R
    Sampling rate                    : 44.1 KHz
    Compression mode                 : Lossy
    Stream size                      : 30.5 MiB (18%)
    Language                         : English
    Encoded date                     : UTC 2011-04-19 22:20:40
    Tagged date                      : UTC 2011-04-19 22:20:40
    
    Recovery : +5%
    Cover : Yes
    Compression method : Best
    Type archive : Rar (1x189MB)
    
    Tracklist:
    01. Intro
    02. Jason Derulo - What If
    03. Britney Spears - Hold it Against Me
    04. Mohombi - Bumpy Ride
    05. Remady - Give Me A Sign
    06. Black Eyed Peas - The Time
    07. Miley Cirus - Who Owns My Heart
    08. Chris Willis - Louder
    09. Kitsch 2.0 Feat.craig smart - Sugar In My Feet
    10. Rihanna - Only Girl
    11. Carlos Gallardo - We (Eloise)
    12. Alexandra Stan - Mr. Saxobeat
    13. Inna - 10 Minutes
    14. Snoop Dogg Vs. David Guetta - Wet
    FILESERVE ENCRYPT LINKS
    ( Click'n'Load with JDownloader )

    Code:
    http://9.bb/Acwe
    HELLSHARE ENCRYPT LINKS
    ( Weblinks, Click'n'Load, DLC, CCF, RSDF )

    Code:
    http://9.bb/AcxQ
    ...copy link in browser, wait 5s, click on "SKIP AD", click on "ClickŽnŽLoad" or other and download...

    >>LINKS ARE INTERCHANGEABLE<<
    nO pASS
    ...YOU CAN SHARE MY UPLOADS...

 

 

Posting Permissions

  • You may not post new threads
  • You may not post replies
  • You may not post attachments
  • You may not edit your posts
  •