Results 1 to 1 of 1
  1. #1

    Thumbs up Pop Express Hits Vol. 9 (2011)

    Follow us on Social Media







    Pop Express Hits Vol. 9 (2011)[DVD5]



    INFO :
    Code:
    Format                           : MPEG-PS
    File size                        : 4 060 MiB
    Duration                         : 1h 22mn 52s
    Overall bit rate                 : 7 043 Kbps
    Writing library                  : Created by Nero
    
    Video
    ID                               : 224 (0xE0)
    Format                           : MPEG Video
    Format version                   : Version 2
    Format profile                   : [email protected]
    Format settings, BVOP            : Yes
    Format settings, Matrix          : Default
    Format settings, GOP             : M=3, N=15
    Bit rate mode                    : Variable
    Bit rate                         : 6 455 Kbps
    Nominal bit rate                 : 9 383 Kbps
    Width                            : 720 pixels
    Height                           : 576 pixels
    Display aspect ratio             : 4:3
    Frame rate                       : 25.000 fps
    Standard                         : PAL
    Color space                      : YUV
    Chroma subsampling               : 4:2:0
    Bit depth                        : 8 bits
    Scan type                        : Progressive
    Scan order                       : Bottom Field First
    Compression mode                 : Lossy
    Bits/(Pixel*Frame)               : 0.623
    Stream size                      : 938 MiB (92%)
    Writing library                  : Created by Nero
    
    Audio
    ID                               : 128 (0x80)
    Format                           : AC-3
    Format/Info                      : Audio Coding 3
    Mode extension                   : CM (complete main)
    Bit rate mode                    : Constant
    Bit rate                         : 448 Kbps
    Channel(s)                       : 6 channels
    Channel positions                : Front: L C R, Side: L R, LFE
    Sampling rate                    : 48.0 KHz
    Bit depth                        : 16 bits
    Compression mode                 : Lossy
    Delay relative to video          : -40ms
    Stream size                      : 65.1 MiB (6%)
    
    Recovery : +5%
    Cover : Yes - Screen
    Compression method : Best
    Type archive : Rar (4x957MB + 1x357MB)
    
    Tracklist:
    01. STARS ON 45 - 45
    02. ANDREEA BALAN - Trippin
    03. SASHA LOPEZ - All My People
    04. LOONA - El Cucaracho
    05. VOXIS - Tell Me Everything
    06. LIVIU HODOR - Still The Same
    07. COLONIA - Lazu oci moje
    08. PHIL WILDE - Loving Thing
    09. INNA - Sun Is Up
    10. MATTYAS - Missing You
    11. JAY KO - One
    12. ALBA WINGS - Say Goodbye
    13. ALEX SAYZ - United As One
    14. SUNLIGHT - I Want You
    15. BEACH GIRLS - Scratch
    16. NO ARTIST - Say Bye
    17. JASPER FORKS - More Tah This
    18. FRED CLOSER - Pray
    19. PAUL PANAIT - Love Game
    20. MOVETOWN - Round N Round
    21. MIKE CANDYS - Together Again
    22. SAHARA - Champagne
    23. JES - Awake
    24. R.I.O. - Like I Love You
    25. ARASH - Broken Angel
    FILESERVE ENCRYPT LINKS
    ( Click'n'Load with JDownloader )

    Code:
    http://9.bb/1sIe
    FILEKEEN ENCRYPT LINKS
    ( Click'n'Load with JDownloader )

    Code:
    http://9.bb/1sLu
    ...copy link in browser, wait 5s, click on "SKIP AD", click on "ClickŽnŽLoad" and download...

    >>LINKS ARE INTERCHANGEABLE<<
    nO pASS
    ...YOU CAN SHARE MY UPLOADS...

 

 

Posting Permissions

  • You may not post new threads
  • You may not post replies
  • You may not post attachments
  • You may not edit your posts
  •