Results 1 to 1 of 1
  1. #1

    Thumbs up Philizz Video Yearmix (2010)

    Follow us on Social Media







    VA - PHILIZZ VIDEO YEARMIX (2010)[DVD5]



    INFO :
    Code:
    Format                           : MPEG-PS
    File size                        : 3 550 MiB
    Duration                         : 56mn 43s
    Overall bit rate                 : 8 063 Kbps
    
    Video
    ID                               : 224 (0xE0)
    Format                           : MPEG Video
    Format version                   : Version 2
    Format profile                   : [email protected]
    Format settings, BVOP            : Yes
    Format settings, Matrix          : Default
    Format settings, GOP             : M=3, N=12
    Bit rate mode                    : Constant
    Bit rate                         : 7 754 Kbps
    Width                            : 720 pixels
    Height                           : 576 pixels
    Display aspect ratio             : 16:9
    Frame rate                       : 25.000 fps
    Standard                         : PAL
    Color space                      : YUV
    Chroma subsampling               : 4:2:0
    Bit depth                        : 8 bits
    Scan type                        : Interlaced
    Scan order                       : Bottom Field First
    Compression mode                 : Lossy
    Bits/(Pixel*Frame)               : 0.748
    Stream size                      : 979 MiB (96%)
    
    Audio
    ID                               : 128 (0x80)
    Format                           : AC-3
    Format/Info                      : Audio Coding 3
    Mode extension                   : CM (complete main)
    Bit rate mode                    : Constant
    Bit rate                         : 192 Kbps
    Channel(s)                       : 2 channels
    Channel positions                : Front: L R
    Sampling rate                    : 48.0 KHz
    Bit depth                        : 16 bits
    Compression mode                 : Lossy
    Delay relative to video          : -80ms
    Stream size                      : 24.4 MiB (2%)
    
    Recovery : +5%
    Cover : Yes
    Compression method : Best
    
    Tracklist:
    Intro with vocals from Thieme & Apollonia
    Jason Derülo - Whatcha Say
    OneRepublic - All The RightMoves
    World25 - We Are The World 2010
    K'Naan - Wavin' Flag
    Jamaica - I Think I Like U 2
    Alicia Keys - Try Sleeping With A Broken Heart
    Eminem ft. Rihanna - Love The Way You Lie
    X-Factor 2010 - You're The Voice
    Travie McCoy ft. Bruno Mars - Billionaire
    Chase & Status - End Credits
    Iyaz - Replay
    Tinie Tempah - Written In The Stars
    Darin - Lovekiller
    B.o.B. ft. Hayley Williams - Airplanes
    Jennifer Paige ft. Nick Carter - Beautiful Lie
    Devlin ft. Yasmin - Runaway
    Justin Bieber ft. Jaden Smith - Never Say Never
    Lady Gaga - Alejandro
    B.o.B. ft. Bruno Mars - Nothing On You
    Mohombi - Bumpy Ride
    The Baseballs - Umbrella
    Alphabeat - DJ
    DJ Tiësto ft. Nelly Furtado - Who Wants To Be Alone
    Timbaland ft. Soshy & Nelly Furtado - Morning After Dark
    Tensnake - Coma Cat
    Stromae - Alors On Danse
    Taio Cruz - Dynamite
    Hurts - Wonderful Life
    Lady Gaga ft. Beyoncé - Telephone
    Caro Emerald - A Night Like This
    Katy Perry ft. Snoop Dogg - California Gurlz
    Black Eyed Peas - Rock That Body
    Swedish House Mafia ft. Pharrell Williams - One
    Example - Won't Go Quietly
    Alex Gardner - I'm Not Mad
    Gramophonedzie - Why Don't You
    Yolande Be Cool ft. DCup - We No Speak Americano
    Tony Jr. ft. Nicolas Nox - Loesje
    David Guetta ft. Kelly Rowland - Commander
    Alex Gaudino - I'm In Love
    Andrew Spencer - Stop Loving You
    Tim Berg - Bromance
    PH Electro- Englishman In New York
    Jay Ko ft. Anya - One
    Adam Lambert ft. Fonzerelli - What'aya Want From Me
    Cascada - Pyromania
    Cheryl Cole - Fight For This Love
    Roll Deep - Good Times
    Cee-Lo Green - **** You
    Kylie Minogue - All The Lovers
    Don Diablo - Animale
    Avicii & Sebastien Drums - My Feelings For You
    Star Pilots - I'm Alive
    Chris Brown - Crawl
    Michael Mind - How Does It Feel
    David Guetta ft. Flo Rida - Club Can't Handle Me
    Remady - Give Me A Sign
    LocnVille - Sun In My Pocket
    Katy Perry - Teenage Dream
    Starkillers - Cantina
    The Opposites ft. The Partysquad - Welkom Terug
    DJ Ella - Shine Like A Superstar
    David Guetta ft. Rihanna - Who's That Chick
    Alexandra Burke ft. Pitbull - All Night Long
    TV Rock - In The Air
    Laserkraft 3D - Nein, Mann!
    Quintino ft. Mitch Crown - You Can't Deny
    Enrique Iglesias ft. Pitbull - I Like It
    Black Eyed Peas - The Time [The Dirty Bit]
    Jesse McCartney ft. T-Pain - Body Language
    David Guetta ft. Kid Cudi - Memories
    David Guetta ft. Chris Willis & Fergie - Gettin' Over You
    Meck ft. Dino - Feels Like A Prayer
    The Underdog Project ft. Eric Chase - Summerjam 2010
    Ocean Drive ft. Aylar - Some People
    Vengaboys ft. Perez Hilton - Rocket To Uranus
    The Disco Boys - I Surrender
    Duck Sauce - Barbra Streisand
    DOWNLOAD :
    Code:
    http://www.fileserve.com/file/U7aaM7c
    http://www.fileserve.com/file/a95K5DQ
    http://www.fileserve.com/file/zg9CCae
    http://www.fileserve.com/file/8GawzDu
    MIRROR
    http://download.cz.hellshare.com/phil-part1-rar/2205905/
    http://download.cz.hellshare.com/phil-part2-rar/2208156/
    http://download.cz.hellshare.com/phil-part3-rar/2208761/
    http://download.cz.hellshare.com/phil-part4-rar/2209423/

    >>LINKS ARE INTERCHANGEABLE<<
    nO pASS
    ...YOU CAN SHARE MY UPLOADS...

 

 

Posting Permissions

  • You may not post new threads
  • You may not post replies
  • You may not post attachments
  • You may not edit your posts
  •