Results 1 to 1 of 1
  1. #1

    Thumbs up Mix House Vol. 2 [DVJ Cristian]

    Follow us on Social Media







    Mix House Vol. 2 [DVJ Cristian]



    INFO :
    Code:
    Format                           : MPEG-PS
    File size                        : 2 770 MiB
    Duration                         : 1h 02mn 42s
    Overall bit rate                 : 6 248 Kbps
    
    Video
    ID                               : 224 (0xE0)
    Format                           : MPEG Video
    Format version                   : Version 2
    Format profile                   : [email protected]
    Format settings, BVOP            : Yes
    Format settings, Matrix          : Default
    Format settings, GOP             : M=3, N=15
    Bit rate mode                    : Variable
    Bit rate                         : 5 931 Kbps
    Nominal bit rate                 : 8 000 Kbps
    Width                            : 720 pixels
    Height                           : 480 pixels
    Display aspect ratio             : 4:3
    Frame rate                       : 29.970 fps
    Standard                         : NTSC
    Color space                      : YUV
    Chroma subsampling               : 4:2:0
    Bit depth                        : 8 bits
    Scan type                        : Interlaced
    Scan order                       : Bottom Field First
    Compression mode                 : Lossy
    Bits/(Pixel*Frame)               : 0.573
    Stream size                      : 949 MiB (95%)
    
    Audio
    ID                               : 128 (0x80)
    Format                           : AC-3
    Format/Info                      : Audio Coding 3
    Mode extension                   : CM (complete main)
    Bit rate mode                    : Constant
    Bit rate                         : 192 Kbps
    Channel(s)                       : 2 channels
    Channel positions                : Front: L R
    Sampling rate                    : 48.0 KHz
    Bit depth                        : 16 bits
    Compression mode                 : Lossy
    Stream size                      : 30.7 MiB (3%)
    
    Recovery : +5%
    Cover : No
    Compression method : Best
    Type archive : Rar (3x957MB + 1x2MB)
    
    Tracklist:
    01.- 2 Brothers On The 4th Floor - Turn The Music Up
    02.- Culture Beat - No Deeper Meaning
    03.- The Adventures Of Stevie V - Jealousy
    04.- 2 Brothers On The 4th Floor - Can't Help My Self
    05.- Plaza - Yo-Yo
    06.- Jinny - Keep Warm
    07.- The Adventures Of Stevie V - Dirty cash
    08 - Sa-Fire - Taste The Bass
    09.- D-Mob - It's Time To Get Funky
    10.- Ya Kid K - Awesome
    11.- Young MC - Pick Up The Pace
    12.- Black Box - Ride On Time
    13.- 2 In A Room - Wiggle It
    14.- FPI Project - Risky
    15.- Mr Lee - Pump That Body
    16.- Off - La Casa Latina
    17.- Twenty 4 Seven - I Can't Stand It
    18.- Westbam - The Roof Is On Fire
    FILESERVE ENCRYPT LINKS
    ( Click'n'Load with JDownloader )

    Code:
    http://u.bb/A7G
    HELLSHARE ENCRYPT LINKS
    ( Weblinks, Click'n'Load, DLC, CCF, RSDF )

    Code:
    http://u.bb/A7H
    ...copy link in browser, wait 5s, click on "SKIP AD", click on "ClickŽnŽLoad" or other and download...

    >>LINKS ARE INTERCHANGEABLE<<
    nO pASS
    ...YOU CAN SHARE MY UPLOADS...

 

 

Posting Permissions

  • You may not post new threads
  • You may not post replies
  • You may not post attachments
  • You may not edit your posts
  •