Results 1 to 1 of 1
  1. #1

    Thumbs up Mix House Vol. 1 [DVJ Cristian]

    Follow us on Social Media







    Mix House Vol. 1 [DVJ Cristian]



    INFO :
    Code:
    Format                           : MPEG-PS
    File size                        : 3 370 MiB
    Duration                         : 1h 16mn 32s
    Overall bit rate                 : 6 314 Kbps
    
    Video
    ID                               : 224 (0xE0)
    Format                           : MPEG Video
    Format version                   : Version 2
    Format profile                   : [email protected]
    Format settings, BVOP            : Yes
    Format settings, Matrix          : Default
    Format settings, GOP             : M=3, N=15
    Bit rate mode                    : Variable
    Bit rate                         : 5 996 Kbps
    Nominal bit rate                 : 8 000 Kbps
    Width                            : 720 pixels
    Height                           : 480 pixels
    Display aspect ratio             : 4:3
    Frame rate                       : 29.970 fps
    Standard                         : NTSC
    Color space                      : YUV
    Chroma subsampling               : 4:2:0
    Bit depth                        : 8 bits
    Scan type                        : Interlaced
    Scan order                       : Bottom Field First
    Compression mode                 : Lossy
    Bits/(Pixel*Frame)               : 0.579
    Stream size                      : 950 MiB (95%)
    
    Audio
    ID                               : 128 (0x80)
    Format                           : AC-3
    Format/Info                      : Audio Coding 3
    Mode extension                   : CM (complete main)
    Bit rate mode                    : Constant
    Bit rate                         : 192 Kbps
    Channel(s)                       : 2 channels
    Channel positions                : Front: L R
    Sampling rate                    : 48.0 KHz
    Bit depth                        : 16 bits
    Compression mode                 : Lossy
    Stream size                      : 30.4 MiB (3%)
    
    Recovery : +5%
    Cover : No
    Compression method : Best
    Type archive : Rar (3x957MB + 1x595MB)
    
    Tracklist:
    01.- Robin s - Love For Love
    02.- Was Not Was - Shake Your Head
    03.- RuPaul - Supermodel
    04.- Robin S - Show me Love
    05.- Lonnie Gordon - Gonna Catch You
    06.- Clubland - Hold On
    07.- Ce Ce *****ton - We Got a Love Thang
    08.- Crystal Waters - Makin' Happy
    09.- Ce Ce *****ton - Finally
    10.- Jomanda - Got a Love for You
    11.- Black Box - I Don't Know Anybody Else
    12.- C&C Music Factory - Gonna Make You Sweat
    13.- Bingoboys F-Princessa - How To Dance
    14.- Cartouche - Feel The Groove
    15.- Mr. Lee - Get Busy
    16.- LaTour - People Are Still Having Sex
    17.- Culture Beat - I Like You
    18.- 49ers – Don't you love me
    19.- Hithouse - Jack To The Sound Of The Underground
    FILESERVE ENCRYPT LINKS
    ( Click'n'Load with JDownloader )

    Code:
    http://9.bb/2SNQ
    HELLSHARE ENCRYPT LINKS
    ( Weblinks, Click'n'Load, DLC, CCF, RSDF )

    Code:
     http://9.bb/2SQe
    ...copy link in browser, wait 5s, click on "SKIP AD", click on "Click´n´Load" or other and download...

    >>LINKS ARE INTERCHANGEABLE<<
    nO pASS
    ...YOU CAN SHARE MY UPLOADS...

 

 

Posting Permissions

  • You may not post new threads
  • You may not post replies
  • You may not post attachments
  • You may not edit your posts
  •