Results 1 to 1 of 1
  1. #1

    Thumbs up The KLF - The White Room DVD (1998)

    Follow us on Social Media







    The KLF - The White Room DVD (1998)

    INFO :
    Code:
    Format                           : MPEG-PS
    File size                        : 2 810 MiB
    Duration                         : 57mn 10s
    Overall bit rate                 : 7 228 Kbps
    Writing library                  : encoded by TMPGEnc (ver. 2.524.63.181)
    
    Video
    ID                               : 224 (0xE0)
    Format                           : MPEG Video
    Format version                   : Version 2
    Format profile                   : [email protected]
    Format settings, BVOP            : Yes
    Format settings, Matrix          : Default
    Bit rate mode                    : Constant
    Bit rate                         : 3 869 Kbps
    Nominal bit rate                 : 4 000 Kbps
    Width                            : 720 pixels
    Height                           : 576 pixels
    Display aspect ratio             : 4:3
    Frame rate                       : 25.000 fps
    Standard                         : PAL
    Resolution                       : 8 bits
    Colorimetry                      : 4:2:0
    Scan type                        : Progressive
    Bits/(Pixel*Frame)               : 0.373
    Stream size                      : 536 MiB (54%)
    Writing library                  : TMPGEnc 2.524.63.181
    
    Audio #1
    ID                               : 160 (0xA0)
    Format                           : PCM
    Format settings, Endianness      : Big
    Format settings, Sign            : Signed
    Muxing mode                      : DVD-Video
    Bit rate mode                    : Constant
    Bit rate                         : 1 536 Kbps
    Channel(s)                       : 2 channels
    Channel positions                : Front: L R
    Sampling rate                    : 48.0 KHz
    Resolution                       : 16 bits
    Stream size                      : 213 MiB (21%)
    
    Audio #2
    ID                               : 161 (0xA1)
    Format                           : PCM
    Format settings, Endianness      : Big
    Format settings, Sign            : Signed
    Muxing mode                      : DVD-Video
    Bit rate mode                    : Constant
    Bit rate                         : 1 536 Kbps
    Channel(s)                       : 2 channels
    Channel positions                : Front: L R
    Sampling rate                    : 48.0 KHz
    Resolution                       : 16 bits
    Stream size                      : 213 MiB (21%)
    
    Recovery : +5%
    Cover : yes
    Menu : yes
    Compression method : best
    
    Tracklist
    1-01 	  	The White Room (Movie) 	46:06
    2-01  	 Kylie Said To Jason (Music Video)  	4:21
    2-02  	 What Time Is Love? (Music Video)  	5:26
    3-01  	 The White Room (Promo Trailer)  	1:57
    
     Unofficial Release 
    DOWNLOADS :
    Code:
    http://www.fileserve.com/file/GCC3FEq
    http://www.fileserve.com/file/fM2TDjR
    http://www.fileserve.com/file/6fDxM4j
    OR
    http://download.cz.hellshare.com/klf-part1.rar/1218283
    http://download.cz.hellshare.com/klf-part2.rar/1218375
    http://download.cz.hellshare.com/klf-part3.rar/1218574
    [/code]

    >> LINKS ARE INTERCHANGEABLE <<
    nO pASS
    ...YOU CAN SHARE MY UPLOADS...

 

 

Posting Permissions

  • You may not post new threads
  • You may not post replies
  • You may not post attachments
  • You may not edit your posts
  •