Results 1 to 1 of 1
  1. #1
    Super Member www.desirulez.net
    Join Date
    Oct 2010
    Posts
    181

    T

    Default Jennifer Lopez - On The Floor ft. Pitbull(1080p_H.264-AAC).mp4

    Follow us on Social Media







    Jennifer Lopez - On The Floor ft. Pitbull(1080p_H.264-AAC).mp4

    General
    Complete name : Jennifer Lopez - On The Floor ft. Pitbull(1080p_H.264-AAC).mp4
    Format : MPEG-4
    Format profile : Base Media / Version 2
    Codec ID : mp42
    File size : 108 MiB
    Duration : 4mn 27s
    Overall bit rate : 3 407 Kbps
    Encoded date : UTC 2011-03-03 01:43:10
    Tagged date : UTC 2011-03-03 01:43:10
    gsst : 0
    gstd : 266998
    gssd : BDD78CF07HH1299409336204769
    gshh : v20.lscache1.c.youtube.com

    Video
    ID : 1
    Format : AVC
    Format/Info : Advanced Video Codec
    Format profile : [email protected]
    Format settings, CABAC : Yes
    Format settings, ReFrames : 1 frame
    Codec ID : avc1
    Codec ID/Info : Advanced Video Coding
    Duration : 4mn 27s
    Bit rate mode : Variable
    Bit rate : 3 278 Kbps
    Maximum bit rate : 7 112 Kbps
    Width : 1 920 pixels
    Height : 1 080 pixels
    Display aspect ratio : 16:9
    Frame rate mode : Variable
    Frame rate : 23.976 fps
    Minimum frame rate : 17.241 fps
    Maximum frame rate : 24.390 fps
    Color space : YUV
    Chroma subsampling : 4:2:0
    Bit depth : 8 bits
    Scan type : Progressive
    Bits/(Pixel*Frame) : 0.066
    Stream size : 104 MiB (96%)
    Tagged date : UTC 2011-03-03 01:43:11

    Audio
    ID : 2
    Format : AAC
    Format/Info : Advanced Audio Codec
    Format profile : LC
    Codec ID : 40
    Duration : 4mn 26s
    Bit rate mode : Variable
    Bit rate : 123 Kbps
    Maximum bit rate : 178 Kbps
    Channel(s) : 2 channels
    Channel positions : Front: L R
    Sampling rate : 44.1 KHz
    Compression mode : Lossy
    Stream size : 3.91 MiB (4%)
    Title : (C) 2007 Google Inc. v08.13.2007.
    Encoded date : UTC 2011-03-03 01:43:10
    Tagged date : UTC 2011-03-03 01:43:11
    screenshot




    [img]
    Code:
    http://www.fileserve.com/file/XqpWsPd
    http://www.fileserve.com/file/yGahFkD
    Last edited by badshahpyare; 03-22-2011 at 01:46 PM.

 

 

Posting Permissions

  • You may not post new threads
  • You may not post replies
  • You may not post attachments
  • You may not edit your posts
  •