Results 1 to 1 of 1
  1. #1

    Default FESTIVALBAR Vol. 1+2 (1986)

    Follow us on Social Media







    FESTIVALBAR Vol. 1+2 (1986)

    INFO :
    Code:
    ____Vol. 1____
    Format                           : AVI
    Format/Info                      : Audio Video Interleave
    File size                        : 764 MiB
    Duration                         : 1h 56mn
    Overall bit rate                 : 920 Kbps
    
    Video
    ID                               : 0
    Format                           : MPEG-4 Visual
    Format settings, BVOP            : No
    Format settings, QPel            : No
    Format settings, GMC             : No warppoints
    Format settings, Matrix          : Default (H.263)
    Codec ID                         : DX50
    Codec ID/Hint                    : DivX 5
    Duration                         : 1h 56mn
    Bit rate                         : 780 Kbps
    Width                            : 352 pixels
    Height                           : 256 pixels
    Display aspect ratio             : 1.375
    Frame rate                       : 20.000 fps
    Resolution                       : 8 bits
    Colorimetry                      : 4:2:0
    Scan type                        : Progressive
    Bits/(Pixel*Frame)               : 0.433
    Stream size                      : 648 MiB (85%)
    Writing library                  : DivX 5.2.1 (DrDivX 106) (UTC 2004-09-08)
    
    Audio
    ID                               : 1
    Format                           : MPEG Audio
    Format version                   : Version 1
    Format profile                   : Layer 3
    Mode                             : Joint stereo
    Format_Settings_ModeExtension    : MS Stereo
    Codec ID                         : 55
    Codec ID/Hint                    : MP3
    Duration                         : 1h 56mn
    Bit rate mode                    : Constant
    Bit rate                         : 128 Kbps
    Channel(s)                       : 2 channels
    Sampling rate                    : 48.0 KHz
    Stream size                      : 106 MiB (14%)
    Alignment                        : Split accross interleaves
    Interleave, duration             : 24 ms (0.48 video frame)
    
    Tracklist :
        * Intro - Genesis
        * Mango - La Rosa DellŽInverno
        * Sabrina - Sexy Girl
        * Sandy Marton - White Storm In The Jungle
        * Hong Kong Syndicat - Too Much
        * Linda Wesley - Wild On The Isle
        * Sigue Sigue Sputnik - 21st Century Boy
        * Sandra - Hi Hi Hi
        * Pic Nic At The Whitehouse - East River
        * Communards - DonŽt Leave Me This Way
        * Joan Armatrading - Kind Words
        * Lena Lovich - Natural Beauty
        * Lena Lovich & Nina Hagen - DonŽt Kill The Animals
        * Nina Hagen - World Now
        * Steve Rogers Band - Ok Si
        * Den Harrow - Charleston
        * Alba - Jump & Do It
        * Scotch - Mirage
        * Cristiano De Andre - Electrica
        * Dori Ghezzi - Nessuno Mai Piu
        * Gargo - Il Fiume
        * Fiorella Mannoia - Sorvolando Eilat
        * Blow Monkeys - Digging Your Scene
        * Black Tie - Take You For A Ride
        * Ciao Fellini - Noche Bahia
        * Carrara - S.O.S Bandito
        * Meccano - Alle Porte DellŽEst
        * Raf - Hard
        * Linda Di Franco - My Boss
        * Eros Ramazzotti - Nuovi Eroi 
    
    
    ____Vol. 2____
    Format                           : AVI
    Format/Info                      : Audio Video Interleave
    File size                        : 751 MiB
    Duration                         : 1h 54mn
    Overall bit rate                 : 920 Kbps
    
    Video
    ID                               : 0
    Format                           : MPEG-4 Visual
    Format settings, BVOP            : No
    Format settings, QPel            : No
    Format settings, GMC             : No warppoints
    Format settings, Matrix          : Default (H.263)
    Codec ID                         : DX50
    Codec ID/Hint                    : DivX 5
    Duration                         : 1h 54mn
    Bit rate                         : 780 Kbps
    Width                            : 352 pixels
    Height                           : 256 pixels
    Display aspect ratio             : 1.375
    Frame rate                       : 20.000 fps
    Resolution                       : 8 bits
    Colorimetry                      : 4:2:0
    Scan type                        : Progressive
    Bits/(Pixel*Frame)               : 0.433
    Stream size                      : 637 MiB (85%)
    Writing library                  : DivX 5.2.1 (DrDivX 106) (UTC 2004-09-08)
    
    Audio
    ID                               : 1
    Format                           : MPEG Audio
    Format version                   : Version 1
    Format profile                   : Layer 3
    Mode                             : Joint stereo
    Format_Settings_ModeExtension    : MS Stereo
    Codec ID                         : 55
    Codec ID/Hint                    : MP3
    Duration                         : 1h 54mn
    Bit rate mode                    : Constant
    Bit rate                         : 128 Kbps
    Channel(s)                       : 2 channels
    Sampling rate                    : 48.0 KHz
    Stream size                      : 104 MiB (14%)
    Alignment                        : Split accross interleaves
    Interleave, duration             : 24 ms (0.48 video frame)
    
    Tracklist :
    Zucchero - Come Il Sole All'Improvviso
    Zucchero - Rispetto
    Spagna - Easy Lady
    Drum Theatre - Home
    Sandra - Innocent Love
    Eros Ramazzotti - Cuore Con Le Ali
    Sandy Marton - Forbidden Memories
    Frankie Goes To Hollywood - Rage Hard
    Ivan Cattaneo - Na Na Na Hei Hei
    Kissing The Pink - One Step
    Limahl - Love In Your Eyes
    Doctor & Medics - Spirit In The Sky
    Baltimora - Juke Box Boy
    Alphaville - Dance With Me
    Taffy - Once More
    Tom Hooker - Looking For Love
    Viktor Laszlo - Sweet Soft Žn Lazy
    Erasure - Oh LŽamour Giuni
    Russo - Alghero
    Bruce & Bongo - Geil
    Samantha Fox - Touch Me
    F.R. David - Sahara Night
    Valerie Dore - Lancelot
    Scialpi - Cry
    Eddy Huntington - U.S.S.R
    Righeira - Italians A Go Go
    Tracy Spencer - Run To Me 
    
    Recovery : +5%
    Cover : no
    Compression method : best
    Download Vol. 1 :
    Code:
    http://www.fileserve.com/file/tbCyG6r

    Download Vol. 2 :
    Code:
    http://www.fileserve.com/file/xzgC6dx
    nO pASS
    ...YOU CAN SHARE MY UPLOADS...

 

 

Posting Permissions

  • You may not post new threads
  • You may not post replies
  • You may not post attachments
  • You may not edit your posts
  •