Results 1 to 1 of 1
  1. #1

    Thumbs up DVJ Shimz - Hitz Faktry Evolution (2011)

    Follow us on Social Media







    DVJ Shimz - Hitz Faktry Evolution (2011)[DVD5]



    INFO :
    Code:
    Format                           : MPEG-PS
    File size                        : 3 510 MiB
    Duration                         : 1h 19mn 35s
    Overall bit rate                 : 6 280 Kbps
    
    Video
    ID                               : 224 (0xE0)
    Format                           : MPEG Video
    Format version                   : Version 2
    Format profile                   : [email protected]
    Format settings, BVOP            : Yes
    Format settings, Matrix          : Default
    Format settings, GOP             : M=3, N=15
    Bit rate mode                    : Variable
    Bit rate                         : 5 963 Kbps
    Nominal bit rate                 : 9 500 Kbps
    Width                            : 720 pixels
    Height                           : 480 pixels
    Display aspect ratio             : 4:3
    Frame rate                       : 29.970 fps
    Standard                         : NTSC
    Color space                      : YUV
    Chroma subsampling               : 4:2:0
    Bit depth                        : 8 bits
    Scan type                        : Interlaced
    Scan order                       : Bottom Field First
    Compression mode                 : Lossy
    Bits/(Pixel*Frame)               : 0.576
    Stream size                      : 950 MiB (95%)
    
    Audio
    ID                               : 189 (0xBD)-128 (0x80)
    Format                           : AC-3
    Format/Info                      : Audio Coding 3
    Mode extension                   : CM (complete main)
    Muxing mode                      : DVD-Video
    Bit rate mode                    : Constant
    Bit rate                         : 192 Kbps
    Channel(s)                       : 2 channels
    Channel positions                : Front: L R
    Sampling rate                    : 48.0 KHz
    Bit depth                        : 16 bits
    Compression mode                 : Lossy
    Stream size                      : 30.6 MiB (3%)
    
    Recovery : +5%
    Cover : No
    Compression method : Best
    Type archive : Rar (3x957MB + 1x711MB)
    
    Tracklist:
    #SORRY NO TRACKLIST#
    FILESERVE ENCRYPT LINKS
    ( Click'n'Load with JDownloader )

    Code:
     http://9.bb/Es4T
    ...copy link in browser, wait 5s, click on "SKIP AD", click on "ClickŽnŽLoad" or other and download...

    nO pASS
    ...YOU CAN SHARE MY UPLOADS...

 

 

Posting Permissions

  • You may not post new threads
  • You may not post replies
  • You may not post attachments
  • You may not edit your posts
  •