Results 1 to 1 of 1
  1. #1

    Thumbs up DVJ Danny Stereo - Dance Session Vol. 8 (2011)

    Follow us on Social Media







    DVJ Danny Stereo - Dance Session Vol. 8 (2011)[avi]



    INFO :
    Code:
    Format                           : AVI
    Format/Info                      : Audio Video Interleave
    Format profile                   : OpenDML
    File size                        : 1.53 GiB
    Duration                         : 49mn 57s
    Overall bit rate                 : 4 372 Kbps
    
    Video
    ID                               : 0
    Format                           : MPEG-4 Visual
    Format profile                   : Advanced [email protected]
    Format settings, BVOP            : 2
    Format settings, QPel            : No
    Format settings, GMC             : No warppoints
    Format settings, Matrix          : Default (H.263)
    Muxing mode                      : Packed bitstream
    Codec ID                         : XVID
    Codec ID/Hint                    : XviD
    Duration                         : 49mn 57s
    Bit rate                         : 3 659 Kbps
    Width                            : 1 280 pixels
    Height                           : 720 pixels
    Display aspect ratio             : 16:9
    Frame rate                       : 30.000 fps
    Color space                      : YUV
    Chroma subsampling               : 4:2:0
    Bit depth                        : 8 bits
    Scan type                        : Progressive
    Compression mode                 : Lossy
    Bits/(Pixel*Frame)               : 0.132
    Stream size                      : 1.28 GiB (84%)
    Writing library                  : XviD 1.2.1 (UTC 2008-12-04)
    
    Audio
    ID                               : 1
    Format                           : PCM
    Format settings, Sign            : Unsigned
    Codec ID                         : 1
    Codec ID/Hint                    : Microsoft
    Duration                         : 49mn 57s
    Bit rate mode                    : Constant
    Bit rate                         : 705.6 Kbps
    Channel(s)                       : 2 channels
    Sampling rate                    : 44.1 KHz
    Bit depth                        : 8 bits
    Stream size                      : 252 MiB (16%)
    Interleave, duration             : 500 ms (15.00 video frames)
    
    Recovery : +5%
    Cover : No
    Compression method : Best
    Type archive : Rar (1x957MB + 1x547MB)
    
    Tracklist:
    01 - Elena - Disco Romance
    02 - Narcotic Sound Feat. Christian D - Mamasita
    03 - Alexandra Stan - Mr Saxobeat
    04 - Akcent - That's My Name
    05 - Black Eyed Peas - The Time (Dirty Beat)
    06 - Corina Feat. JJ - No Sleepin'
    07 - Duck Sauce - Barbra Streisand
    08 - Mario Bischin - So
    09 - RedCode - Rumba Preciosa
    10 - Tom Boxer Feat. Antonia - Morena
    11 - Beste Russische (Real Nombre Desconocido)
    12 - Sunrise Inc. vs Starchild - Lick Shot
    13 - Adrian Sina Feat. Beverlei Brown - I Can't Live Without You
    14 - Dan Balan - Chica Bomb
    15 - Dj Assad Feat. Big Ali & Willy William - Playground
    16 - Mike Candy's - Together Again
    17 - Jennifer Lopez Feat. Pitbull - On The Floor
    18 - Play & Win - Only
    19 - Kalwi & Remi - Kiss
    20 - Britney Spears - Hold It Agains Me
    21 - Selena Gomes - Naturally
    FILESERVE ENCRYPT LINKS
    ( Click'n'Load with JDownloader )

    Code:
    http://9.bb/FaOr
    HELLSHARE ENCRYPT LINKS
    ( Weblinks, Click'n'Load, DLC, CCF, RSDF )

    Code:
    http://9.bb/FaOI
    ...copy link in browser, wait 5s, click on "SKIP AD", click on "ClickŽnŽLoad" or other and download...

    >>LINKS ARE INTERCHANGEABLE<<
    nO pASS
    ...YOU CAN SHARE MY UPLOADS...

 

 

Posting Permissions

  • You may not post new threads
  • You may not post replies
  • You may not post attachments
  • You may not edit your posts
  •