Results 1 to 1 of 1
  1. #1

    Thumbs up DJ Pinky - Electro Pop (2010)[videomegamix]

    Follow us on Social Media







    DJ Pinky - Electro Pop (2010)[DVD5]-videomegamix-



    INFO :
    Code:
    Format                           : MPEG-PS
    File size                        : 3 810 MiB
    Duration                         : 1h 06mn 01s
    Overall bit rate                 : 8 185 Kbps
    
    Video
    ID                               : 224 (0xE0)
    Format                           : MPEG Video
    Format version                   : Version 2
    Format profile                   : [email protected]
    Format settings, BVOP            : Yes
    Format settings, Matrix          : Default
    Format settings, GOP             : M=3, N=15
    Bit rate mode                    : Variable
    Bit rate                         : 7 830 Kbps
    Nominal bit rate                 : 9 500 Kbps
    Width                            : 720 pixels
    Height                           : 480 pixels
    Display aspect ratio             : 4:3
    Frame rate                       : 29.970 fps
    Standard                         : NTSC
    Color space                      : YUV
    Chroma subsampling               : 4:2:0
    Bit depth                        : 8 bits
    Scan type                        : Interlaced
    Scan order                       : Bottom Field First
    Compression mode                 : Lossy
    Bits/(Pixel*Frame)               : 0.756
    Stream size                      : 980 MiB (96%)
    
    Audio
    ID                               : 128 (0x80)
    Format                           : AC-3
    Format/Info                      : Audio Coding 3
    Mode extension                   : CM (complete main)
    Bit rate mode                    : Constant
    Bit rate                         : 192 Kbps
    Channel(s)                       : 2 channels
    Channel positions                : Front: L R
    Sampling rate                    : 48.0 KHz
    Bit depth                        : 16 bits
    Compression mode                 : Lossy
    Delay relative to video          : -67ms
    Stream size                      : 24.0 MiB (2%)
    
    Recovery : +5%
    Cover : No
    Compression method : Best
    Type archive : Rar (4x957MB + 1x155MB)
    
    Tracklist:
    #SORRY NO TRACKLIST#
    ...incl. hits : LADY GAGA, STARSHIP, KESHA, RIHANNA, SEAN KINGSTON, FLO RIDA, BLACK EYED PEAS, ENUR FEAT NATASJA, JUAN MAGAN, DAVID GUETTA, RIO, GURU JOSH, PITBULL, BOB SINCLAIR, MONAKO, WALTER MASTER J, DOCA, ALEX GAUDINO, SKREATCH, DJ MENDEZ, DANZEL, ALEX GAUDINO, BENNY BENASSI, BETO CUEVAS and more ...
    FILESERVE ENCRYPT LINKS
    ( Click'n'Load with JDownloader )

    Code:
     http://u.bb/Bta
    HELLSHARE ENCRYPT LINKS
    ( Weblinks, Click'n'Load, DLC, CCF, RSDF )

    Code:
    http://u.bb/Btb
    ...copy link in browser, wait 5s, click on "SKIP AD", click on "ClickŽnŽLoad" or other and download...

    >>LINKS ARE INTERCHANGEABLE<<
    nO pASS
    ...YOU CAN SHARE MY UPLOADS...

 

 

Posting Permissions

  • You may not post new threads
  • You may not post replies
  • You may not post attachments
  • You may not edit your posts
  •