Results 1 to 1 of 1
  1. #1

    Thumbs up DJ Pich - VideoHitMix (2010)

    Follow us on Social Media







    DJ Pich - VideoHitMix (2010)[DVD5]



    INFO :
    Code:
    Format                           : MPEG-PS
    File size                        : 2 810 MiB
    Duration                         : 1h 11mn 50s
    Overall bit rate                 : 5 597 Kbps
    Writing library                  : encoded by TMPGEnc Authoring Works 4 Version. 4.0.11.39
    
    Video
    ID                               : 224 (0xE0)
    Format                           : MPEG Video
    Format version                   : Version 2
    Format profile                   : [email protected]
    Format settings, BVOP            : Yes
    Format settings, Matrix          : Default
    Format settings, GOP             : M=3, N=18
    Bit rate mode                    : Variable
    Bit rate                         : 5 261 Kbps
    Nominal bit rate                 : 8 000 Kbps
    Width                            : 720 pixels
    Height                           : 480 pixels
    Display aspect ratio             : 4:3
    Frame rate                       : 29.970 fps
    Standard                         : NTSC
    Color space                      : YUV
    Chroma subsampling               : 4:2:0
    Bit depth                        : 8 bits
    Scan type                        : Interlaced
    Scan order                       : Bottom Field First
    Compression mode                 : Lossy
    Bits/(Pixel*Frame)               : 0.508
    Stream size                      : 962 MiB (94%)
    Writing library                  : TMPGEnc Authoring Works 4 Version. 4.0.11.39
    
    Audio
    ID                               : 128 (0x80)
    Format                           : AC-3
    Format/Info                      : Audio Coding 3
    Mode extension                   : CM (complete main)
    Bit rate mode                    : Constant
    Bit rate                         : 224 Kbps
    Channel(s)                       : 2 channels
    Channel positions                : Front: L R
    Sampling rate                    : 48.0 KHz
    Bit depth                        : 16 bits
    Compression mode                 : Lossy
    Stream size                      : 41.0 MiB (4%)
    
    Recovery : +5%
    Cover : No
    Compression method : Best
    
    Tracklist :
    Jay Z Ft. Alicia Keys - Empire State Of Mind
    Sean Paul Ft. Keri Hilson - Hold My Hand
    Keane Ft. K'naan - Stop For A Minute
    Eminem Ft. Rihanna - Love The Way You Lie
    Travie Mccoy Ft. Bruno Mars - Billionaire
    Owl City - Fireflies
    Iyaz - Replay
    Professor Green Ft. Lily Allen - Just Be Good To Green
    Lady Gaga - Alejandro
    Gorillaz Ft. Bobby Womack And Mos Def - Stylo
    Maroon 5 - Misery
    Snow Patrol - Just Say Yes
    Brandon Flowers - Crossfire
    Professor Green - I Need You Tonight
    Jedward Ft. Vanilla Ice - Under Pressure (Ice Ice Baby)
    Maroon 5 - Give A Little More
    TiŽsto Ft. Nelly Furtado - Who Wants To Be Alone
    Stromae - Alors On Dance
    Taio Cruz - Dynamite
    Lady Gaga - Bad Romance
    Gorillaz - On Melancholy Hill
    Ke$ha - Blah Blah Blah
    Usher Ft. Pitbull - Dj Got Us Fallin' In Love
    Justin Bieber Ft. Sean Kingston - Eenie Meenie
    Lady Gaga Ft. Beyonce - Telephone
    Taio Cruz Ft. Ke$ha - Dirty Picture
    Swedish House Mafia Feat Pharrell Williams - One (Your Name)
    Black Eyed Peas - Rock That Body
    Kelly Rowland Ft. David Guetta - Commander
    Dennis Ferrer - Hey Hey
    Yolanda Be Cool & D Cup - We No Speak Americano
    David Guetta Ft. Estelle - One Love
    Jamiroquai - White Knuckle Ride
    Gramophonedzie - Why Don't You
    Katy Perry Ft. Snoop Dogg - California Gurls
    Example - Won't Go Quietly
    Tina More - Touch Me
    Inna - Hot
    Javi Mula Ft. Dj Discipline - Sexy Lady
    Bob Sinclar & Sahara Ft. Shaggy - I Wanna
    Dan Balan - Chica Bomb
    Edward Maya Ft. Vika Jigulina - Stereo Love
    Pitbull Ft. Akon - Shut It Down
    Flo Rida Ft. David Guetta - Club Can't Handle Me
    Duck Sauce - Barbara Streisand
    Chuckie & LMFAO - Let The Bass Kick
    Spankers - Sex On The Beach
    Whizzkiddz Ft. Inusa - Rumours
    Enrique Iglesias Ft. Pitbull - I Like
    Lucenzo Ft. Big Ali - Vem DanÁar Kuduro
    David Guetta, Chris Willis Ft. LMFAO & Fergie - Gettin' Over You
    Afrojack Ft. Eva Simmons - Take Over Control
    Goldfrapp - Rocket
    Scissor Sisters - Fire With Fire
    DOWNLOAD : fileserve/hellshare (3x957MB + 1x5MB)
    ( Click'n'Load with JDownloader )

    Code:
    http://linkcrypt.ws/dir/0lqc2tk2x2qd56z
    >>LINKS ARE INTERCHANGEABLE<<
    nO pASS
    ...YOU CAN SHARE MY UPLOADS...

 

 

Posting Permissions

  • You may not post new threads
  • You may not post replies
  • You may not post attachments
  • You may not edit your posts
  •