Results 1 to 1 of 1
  1. #1

    Thumbs up DJ Panduro pres. MiX POINT vol. 3 (80īs)

    Follow us on Social Media







    DJ Panduro pres. MIX POINT vol. 3 (80īs)



    INFO :
    Code:
    Format                           : AVI
    Format/Info                      : Audio Video Interleave
    File size                        : 399 MiB
    Duration                         : 45mn 1s
    Overall bit rate                 : 1 240 Kbps
    
    Video
    ID                               : 0
    Format                           : MPEG-4 Visual
    Format settings, BVOP            : Yes
    Format settings, QPel            : No
    Format settings, GMC             : No warppoints
    Format settings, Matrix          : Default (H.263)
    Muxing mode                      : Packed bitstream
    Codec ID                         : DX50
    Codec ID/Hint                    : DivX 5
    Duration                         : 45mn 1s
    Bit rate                         : 1 100 Kbps
    Width                            : 656 pixels
    Height                           : 480 pixels
    Display aspect ratio             : 4:3
    Frame rate                       : 29.970 fps
    Color space                      : YUV
    Chroma subsampling               : 4:2:0
    Bit depth                        : 8 bits
    Scan type                        : Progressive
    Compression mode                 : Lossy
    Bits/(Pixel*Frame)               : 0.117
    Stream size                      : 354 MiB (89%)
    Title                            : Video 
    Writing library                  : DivX 6.8.0 Converter 6.6
    
    Audio
    ID                               : 1
    Format                           : MPEG Audio
    Format version                   : Version 1
    Format profile                   : Layer 3
    Mode                             : Dual mono
    Codec ID                         : 55
    Codec ID/Hint                    : MP3
    Duration                         : 45mn 1s
    Bit rate mode                    : Constant
    Bit rate                         : 128 Kbps
    Channel(s)                       : 2 channels
    Sampling rate                    : 48.0 KHz
    Compression mode                 : Lossy
    Stream size                      : 41.2 MiB (10%)
    Alignment                        : Split accross interleaves
    Interleave, duration             : 33 ms (1.00 video frame)
    Interleave, preload duration     : 500 ms
    Title                            : Audio 
    
    Recovery : +5%
    Cover : Yes
    Compression method : Best
    Type archive : Rar (1x411MB)
    
    Tracklist:
    01. Intro
    02. Paula Abdul - Straight Up
    03. Jan Hammer - Crockett's Theme
    04. Alison Moyet - Invisible
    05. Mike Oldfield To France
    06. Mr.Mister - Broken wings
    07. Tears For Fears - Shout
    08. Nik Kershaw - The Riddle
    09. Mel Brooks - To Be Or Not To Be
    10. Depeche Mode - Never Let Me Down Again
    11. Duran Duran - Notorious
    12. Neneh Cherry - Buffalo Stance
    13. Eddy Huntington - USSR
    14. The Twins - Ballet Dancer
    15. Boney M. - Kalimba Da Luna
    16. Thompson Twins - Love On Your Side
    17. Level 42 - Lessons In Love
    18. Michael Jackson - Bad
    17. Harold Faltermeyer - Axel F
    18. Tears For Fears - Mad world
    19. Sandra - Hi! Hi! Hi!
    20. Eurythmics - Sexcrime 1984
    21. Rick Astley - Take Me To Your Heart
    22. Depeche Mode - Leave In Silence
    23. Miami Sound Machine - Rhythm Is Gonna Get You
    24. Fancy - Flames Of Love
    25. Sandra - In The Heat Of The Night
    26. Chaka Khan - I Feel for You
    27. Yes - Owner Of A Lonely Heart
    28. Bon Jovi - You Give Love A Bad Name
    29. Eurythmics - Sweet Dreams Are Made Of These
    30. Pet Shop Boys - Suburbia
    FILESERVE ENCRYPT LINKS
    ( Click'n'Load with JDownloader )

    Code:
     http://9.bb/5pTP
    HELLSHARE ENCRYPT LINKS
    ( Weblinks, Click'n'Load, DLC, CCF, RSDF )

    Code:
    http://9.bb/5pVP
    ...copy link in browser, wait 5s, click on "SKIP AD", click on "ClickīnīLoad" or other and download...

    >>LINKS ARE INTERCHANGEABLE<<
    nO pASS
    ...YOU CAN SHARE MY UPLOADS...

 

 

Posting Permissions

  • You may not post new threads
  • You may not post replies
  • You may not post attachments
  • You may not edit your posts
  •