Results 1 to 1 of 1
  1. #1

    Thumbs up DJ Magrao - Videomix Vol.9 (2011)

    Follow us on Social Media







    DJ Magrao - Videomix Vol. 9 (2011)[DVD5]



    INFO :
    Code:
    Format                           : MPEG-PS
    File size                        : 3 620 MiB
    Duration                         : 1h 02mn 03s
    Overall bit rate                 : 8 339 Kbps
    
    Video
    ID                               : 224 (0xE0)
    Format                           : MPEG Video
    Format version                   : Version 2
    Format profile                   : [email protected]
    Format settings, BVOP            : Yes
    Format settings, Matrix          : Default
    Bit rate mode                    : Constant
    Bit rate                         : 8 000 Kbps
    Width                            : 720 pixels
    Height                           : 480 pixels
    Display aspect ratio             : 16:9
    Frame rate                       : 29.970 fps
    Standard                         : NTSC
    Color space                      : YUV
    Chroma subsampling               : 4:2:0
    Bit depth                        : 8 bits
    Scan type                        : Interlaced
    Scan order                       : Top Field First
    Compression mode                 : Lossy
    Bits/(Pixel*Frame)               : 0.772
    Stream size                      : 980 MiB (96%)
    
    Audio
    ID                               : 128 (0x80)
    Format                           : AC-3
    Format/Info                      : Audio Coding 3
    Mode extension                   : CM (complete main)
    Bit rate mode                    : Constant
    Bit rate                         : 192 Kbps
    Channel(s)                       : 2 channels
    Channel positions                : Front: L R
    Sampling rate                    : 48.0 KHz
    Bit depth                        : 16 bits
    Compression mode                 : Lossy
    Stream size                      : 23.6 MiB (2%)
    
    Recovery : +5%
    Cover : Yes - Screen
    Compression method : Best
    Type archive : Rar (3x957MB + 1x831MB)
    
    Tracklist:
    01 - DJ/VJ Magrao Introdution 2011 Part 1
    (Kesha - Take It Off)
    02 - Maroon 5 - Misery
    03 - Shakira Feat.Dizzee Rascal - Loca
    04 - Bruno Mars - Grenade
    05 - Taio Cruz Feat.Ludacris - Break Your Heart
    06 - Far East Movement & The Cataracs & Dev - Like A G6
    07 - Usher Feat.Pitbull - DJ Got Us Fallin' In Love
    08 - Kylie - Better Than Today
    09 - B.O.B Feat.Hayley Williams - Airplanes
    10 - Pitbull - Bon, Bon (We No Speak Americano)
    11 - Rihanna - Only Girl (In The World)
    12 - Flo Rida Feat.David Guetta - Club Can't Handle Me
    13 - Black Eyed Peas - The Time (The Dirty Bit)
    14 - Milk & Sugar vs Vaya Con Dios - Hey (Nah Neh Nah)
    15 - Katy Perry - Teenage Dream
    16 - Eminem Feat.Rihanna - Love The Way You Lie
    17 - Edward Maya Feat.Vika Jigulina - This Is My Life
    18 - Inna - Sun Is Up
    19 - Taio Cruz - Dynamite
    20 - Travie McCoy Feat.Bruno Mars - Billionaire
    21 - Kesha - We R Who We R
    22 - Duck Sauce - Barbra Streisand
    23 - PH Electro - Englishman In New York
    24 - Will.I.Am Feat.Nicki Minaj - Check It Out
    25 - David Guetta & Rihanna - Who's That Chick
    26 - Remady Feat.Manu L - Give Me A Sign
    27 - Rihanna Feat.Drake - What's My Name
    28 - Ne-Yo - Beautiful Monster
    29 - Edward Maya Feat.Vika Jigulina - Desert Rain
    30 - Katy Perry - Firework
    31 - Bruno Mars - Just The Way You Are
    32 - Bob Sinclar Feat.Ben Onono - Rainbow Of Love
    33 - David Guetta Feat.Fergie, Chris Willis & LMFAO - Gettin' Over You
    34 - Nelly - Just A Dream
    35 - Chris Brown - Yeah x3
    36 - Far East Movement & Roger Sanchez Feat.Kanobby - 2gether
    (DJ/VJ Magrao Introdution 2011 Part 2)
    Bonus Mix
    37 - Erasure - Sometimes
    38 - Culture Club - I'll Tumble For Ya
    39 - Rick Astley - Never Gonna Give You Up
    40 - Pet Shop Boys - West And Girls
    41 - Wham! - Everything She Wants
    42 - Kylie Minogue - I Should Be So Lucky
    43 - The Human League - Don't You Want Me
    44 - Frankie Goes To Hollywood - Relax
    45 - Whitney Houston - I Wanna Dance With Somebody (Who Loves Me)
    46 - Whitney Houston - How Will I Know
    47 - Bananarama - Love In The First Degree
    FILESERVE ENCRYPT LINKS
    ( Click'n'Load with JDownloader )

    Code:
    http://9.bb/G1K
    HELLSHARE ENCRYPT LINKS
    ( Weblinks, Click'n'Load, DLC, CCF, RSDF )

    Code:
     http://9.bb/G1T
    ...copy link in browser, wait 5s, click on "SKIP AD", click on "ClickŽnŽLoad" or other and download...

    >>LINKS ARE INTERCHANGEABLE<<
    nO pASS
    ...YOU CAN SHARE MY UPLOADS...

 

 

Posting Permissions

  • You may not post new threads
  • You may not post replies
  • You may not post attachments
  • You may not edit your posts
  •