Results 1 to 1 of 1
  1. #1

    Thumbs up DJ Le Salt - Retro Party Vol. 4 (2009)

    Follow us on Social Media







    DJ Le Salt - Retro party Vol. 4 (2009)[DVD5]



    INFO :
    Code:
    Format                           : MPEG-PS
    File size                        : 4 350 MiB
    Duration                         : 1h 12mn 53s
    Overall bit rate                 : 6 462 Kbps
    
    Video
    ID                               : 224 (0xE0)
    Format                           : MPEG Video
    Format version                   : Version 2
    Format profile                   : [email protected]
    Format settings, BVOP            : Yes
    Format settings, Matrix          : Default
    Format settings, GOP             : M=3, N=15
    Bit rate mode                    : Variable
    Bit rate                         : 6 141 Kbps
    Nominal bit rate                 : 9 574 Kbps
    Width                            : 720 pixels
    Height                           : 480 pixels
    Display aspect ratio             : 4:3
    Frame rate                       : 29.970 fps
    Standard                         : NTSC
    Color space                      : YUV
    Chroma subsampling               : 4:2:0
    Bit depth                        : 8 bits
    Scan type                        : Progressive
    Compression mode                 : Lossy
    Bits/(Pixel*Frame)               : 0.593
    Stream size                      : 973 MiB (95%)
    
    Audio
    ID                               : 128 (0x80)
    Format                           : AC-3
    Format/Info                      : Audio Coding 3
    Mode extension                   : CM (complete main)
    Bit rate mode                    : Constant
    Bit rate                         : 192 Kbps
    Channel(s)                       : 2 channels
    Channel positions                : Front: L R
    Sampling rate                    : 48.0 KHz
    Bit depth                        : 16 bits
    Compression mode                 : Lossy
    Delay relative to video          : -67ms
    Stream size                      : 30.4 MiB (3%)
    
    Recovery : +5%
    Cover : Yes
    Compression method : Best
    
    Tracklist:
    01. Alphaville - Big In Japan
    02. Berlin - Take My Breath Away
    03. Sandra - Maria Magdalena
    04. A Ha - Touchy
    05. Duran Duran - Notorious
    06. Men At Work - Down Under
    07. Inxs - Need You Tonight
    08. Pet Shop Boys - Domino Dancing
    09. Tony Esposito - Kalimba De Luna
    10. Depeche Mode - Enjoy The Silence
    11. Depeche Mode - Everything Counts
    12. Pet Shop Boys - West End Girls
    13. Madonna - Into The Groove
    14. Falco - Der Kommissar
    15. New Order - Bizarre Love Triangle
    16. A Ha - I've Been Losing You
    17. Depeche Mode - Strangelove
    18. Erasure - Love To Hate You
    19. Inxs - Suicide Blonde
    20. John Farnham - Age Of Reason
    21. Cyndi Lauper - Girls Just Want To Have Fun
    22. Limahl - Never Ending Story
    23. Erasure - Chains Of Love
    24. Talk Talk - It's My Life
    25. Cutting Crew - I've Just Died In Your Arms
    26. Mike Oldfield - Moonlight Shadow
    27. Inxs - Original Sin
    28. Camouflage - Love Is A Shield
    29. Guns N'roses - Don't Cry
    30. Def Leppard - Love Bites
    31. Europe - Carrie
    32. Metallica - The Unforgiven
    33. Bon Jovi - Always
    34. Aerosmith - Fly Away From Here
    35. Nazareth - Dream On
    36. Scorpions - Wind Of Change
    37. Poison - Life Go On
    38. Modern Talking - You Can Win If You Want
    39. Modern Talking - Geronimo's Cadillac
    40. Modern Talking - Atlantis Is calling
    41. Modern Talking . Brother Louie
    42. CC Catch - Cause You Are Young
    43. Modern Talking - Cheri Cheri Lady
    44. CC Catch - Strangers By Night
    45. CC Catch - Heartbreak Hotel
    46. Modern Talking - You're My Heart, You're My Soul
    47. CC Catch - Soul Survivor
    48. Kaoma - Lambada
    49. Kaoma - Dançando Lambada
    50. Kaoma - Melodia De Amor
    51. Natusha - Tu La Tienes Que Pagar
    52. Kaoma - Lambamor
    BONUS MIX “BREAKDANCE MEDLEY”:
    53. Herbie Han**** - Rock It
    54. Afrika Bambaataa & Soul Sonic Force - Frantic Situation
    55. Break Machine - Street Dance
    56. Ollie & Jerry - Breakin'
    57. Newcleus - Jam On It
    58. Shannon - Let The Musc Play
    59. Break Machine - Breakdance Party
    60. Arthur Baker - Breaker's Revenge
    61. Hot Streak - Body Work
    62. Bar Kays - Freakshow
    DOWNLOAD : fileserve/hellshare (4x957MB + 1x590MB)
    ( Click'n'Load with JDownloader )

    Code:
    http://u.bb/5uP
    ...copy link in browser, wait 5s, click on "SKIP AD", click on "Click´n´Load" and download...

    >>LINKS ARE INTERCHANGEABLE<<
    nO pASS
    ...YOU CAN SHARE MY UPLOADS...

 

 

Posting Permissions

  • You may not post new threads
  • You may not post replies
  • You may not post attachments
  • You may not edit your posts
  •