Results 1 to 1 of 1
  1. #1

    Default DJ Le Salt - Retro Party Vol. 3 (2009)

    Follow us on Social Media







    DJ Le Salt - Retro party Vol. 3 (2009)[DVD5]



    INFO :
    Code:
    Format                           : MPEG-PS
    File size                        : 4 350 MiB
    Duration                         : 1h 17mn 07s
    Overall bit rate                 : 7 962 Kbps
    
    Video
    ID                               : 224 (0xE0)
    Format                           : MPEG Video
    Format version                   : Version 2
    Format profile                   : [email protected]
    Format settings, BVOP            : Yes
    Format settings, Matrix          : Default
    Format settings, GOP             : M=3, N=15
    Bit rate mode                    : Variable
    Bit rate                         : 7 611 Kbps
    Nominal bit rate                 : 9 500 Kbps
    Width                            : 720 pixels
    Height                           : 480 pixels
    Display aspect ratio             : 4:3
    Frame rate                       : 29.970 fps
    Standard                         : NTSC
    Color space                      : YUV
    Chroma subsampling               : 4:2:0
    Bit depth                        : 8 bits
    Scan type                        : Progressive
    Compression mode                 : Lossy
    Bits/(Pixel*Frame)               : 0.735
    Stream size                      : 979 MiB (96%)
    
    Audio
    ID                               : 128 (0x80)
    Format                           : AC-3
    Format/Info                      : Audio Coding 3
    Mode extension                   : CM (complete main)
    Bit rate mode                    : Constant
    Bit rate                         : 192 Kbps
    Channel(s)                       : 2 channels
    Channel positions                : Front: L R
    Sampling rate                    : 48.0 KHz
    Bit depth                        : 16 bits
    Compression mode                 : Lossy
    Delay relative to video          : -67ms
    Stream size                      : 24.7 MiB (2%)
    
    Recovery : +5%
    Cover : Yes
    Compression method : Best
    
    Tracklist:
    01. I Like Chopin - Gazebo (1983)
    02. Shangai - Lee Marrow (1985)
    03. Around My Dreams - Silver Pozzoli (1984)
    04. Don't Stop The Music - Lee Marrow (1985)
    05. Tarzan Boy - Baltimora (1985)
    06. Happy Children - P. Lion (1984)
    07. Woodspeaker From Space - Video Kids (1984)
    08. You're A Woman - Bad Boys Blue (1985)
    09. Tonight - Ken Laszlo (1985)
    10. Boys - Sabrina (1987)
    11. Dial My Number - Romano Bais (1985)
    12. Chinese Eyes - Fancy (1985)
    13. Touch In The Night - Silent Circle (1985)
    14. Happy Song - Boney M (1984)
    15. Loco Mia - Locomia (1989)
    16. Rumba Samba Mabo - Locomia (1989)
    17. Marina - Rocco Granata (1989)
    18. Don't Miss The Party Line - Bizz Nizz (1989)
    19. Ritmo De La Noche - Mystic (1990)
    20. Good Life - Inner City (1988)
    21. Capella - Helyom Halib (1989)
    22. I Can't Stand It - Twenty 4 Seven (1991)
    23. Pump Up The Jam - Technotronic (1989)
    24. La Luna - Belinda Carlisle (1989)
    25. Here Comes The Hotstepper - Ini Kamoze (1995)
    26. Coco Jambo - Mr. President (1996)
    27. Living In A Danger - Ace Of Base (1993)
    28. Push The Feeling On - Nightcrawlers (1993)
    29. Rythm Of The Night - Corona (1994)
    30. What Is Love - Haddaway (1993)
    31. Life - Haddaway (1993)
    32. Rock My Heart - Haddaway (1993)
    33. It's My Life - Dr. Alban (1992)
    34. Fat Boy - Max A Million (1995)
    35. Be My Lover - La Bouche (1995)
    36. Sweet Dreams - La Bouche (1995)
    37. Missing - Everything But The Girl (1994)
    38. Infinity - Guru Josh (Remix) (1990)
    39. Sing It Back - Moloko (1998)
    40. In Blue (Da Ba Dee) - Eiffel 65 (1999)
    41. Mighty Dub Katz - Magic Carpet Ride (1995)
    42. 9 P.M. (Till I Come) - ATB (1998)
    43. Meet Her Love Parade - Da Hool (1997)
    44. Children – Robert Miles (1995)
    45. L'amour Toujours - Gigi D'Agostino (1999)
    46. Dueño De Nada - José Luis Rodríguez (1981)
    47. Hacer El Amor Con Otro - Alejandra Guzman (1991)
    48. Te Quiero - José Luis Perales (1981)
    49. Mio - Myriam Hernandez (1990)
    50. Simplemente Amigos - Ana Gabriel (1988)
    51. Sereno - Wilkins (1991)
    52. De Mi Enamorate - Daniela Romo (1986)
    53. Clásico - Orlando Netti (1984)
    54. La Gata Bajo La Lluvia - Rocío Durcal (1981)
    DOWNLOAD : fileserve/hellshare (4x957MB + 1x698MB)
    ( Click'n'Load with JDownloader )

    Code:
    http://9.bb/Cck
    ...copy link in browser, wait 5s, click on "SKIP AD", click on "Click´n´Load" and download...
    >>LINKS ARE INTERCHANGEABLE<<
    nO pASS
    ...YOU CAN SHARE MY UPLOADS...

 

 

Posting Permissions

  • You may not post new threads
  • You may not post replies
  • You may not post attachments
  • You may not edit your posts
  •