Results 1 to 1 of 1
  1. #1

    Thumbs up DJ Le Salt - Retro Party Vol. 2 (2009)

    Follow us on Social Media







    DJ Le Salt - Retro party Vol. 2 (2009)[DVD5]



    INFO :
    Code:
    Format                           : MPEG-PS
    File size                        : 4 350 MiB
    Duration                         : 1h 17mn 10s
    Overall bit rate                 : 7 686 Kbps
    
    Video
    ID                               : 224 (0xE0)
    Format                           : MPEG Video
    Format version                   : Version 2
    Format profile                   : [email protected]
    Format settings, BVOP            : Yes
    Format settings, Matrix          : Default
    Format settings, GOP             : M=3, N=15
    Bit rate mode                    : Variable
    Bit rate                         : 5 997 Kbps
    Nominal bit rate                 : 9 500 Kbps
    Width                            : 720 pixels
    Height                           : 480 pixels
    Display aspect ratio             : 4:3
    Frame rate                       : 29.970 fps
    Standard                         : NTSC
    Color space                      : YUV
    Chroma subsampling               : 4:2:0
    Bit depth                        : 8 bits
    Scan type                        : Progressive
    Compression mode                 : Lossy
    Bits/(Pixel*Frame)               : 0.579
    Stream size                      : 799 MiB (78%)
    
    Audio
    ID                               : 160 (0xA0)
    Format                           : PCM
    Format settings, Endianness      : Big
    Format settings, Sign            : Signed
    Muxing mode                      : DVD-Video
    Bit rate mode                    : Constant
    Bit rate                         : 1 536 Kbps
    Channel(s)                       : 2 channels
    Channel positions                : Front: L R
    Sampling rate                    : 48.0 KHz
    Bit depth                        : 16 bits
    Delay relative to video          : -67ms
    Stream size                      : 205 MiB (20%)
    
    Recovery : +5%
    Cover : Yes
    Compression method : Best
    
    Tracklist:
    01 - El Baile De Los Que Sobran - Los Prisioneros
    02 - Me Vuelvo Loco - Vilma Palma E Vampiros
    03 - Nada Personal (Rmx) - Soda Stereo
    04 - Debajo Del Puente - Ariel Roth
    05 - En La Ciudad De La Furia - Soda Stereo
    06 - La Muralla Verde - Los Enanitos Verdes
    07 - Es Por Amor - Git
    08 - Costumbres Argentinas - Los Abuelos
    09 - La Calle Es Su Lugar - Git
    10 - Demoliendo Hoteles - Charly Garcia
    11 - No Me Dejan Salir - Charly Garcia
    12 - Tele-K - Soda Stereo
    13 - Mi Sombra En La Pared - Miguel Mateos
    14 - Una Luna De Miel En La Mano - Virus
    15 - Tren Al Sur - Los Prisioneros
    16 - Burn Rubber On Me - The Gap Band
    17 - On The Road Again - Barrabas
    18 - S.O.S. (Love To Rescue) - Dee D. Jackson
    19 - Last Train To London - E.L.O.
    20 - Funkytown - Lipps. Inc.
    21 - Stars On 45 - Beatles Medley
    22 - One Way Ticket - Eruption
    23 - The Model - Kraftwerk
    24 - Ring My Bell - Anita Ward
    25 - Catch The Cat - Cherry Lane
    26 - La Chica - African Magic Combo
    27 - Abracadabra - Steve Miller Band
    28 - Gimme Gimme - Abba
    29 - Hands Up - Ottawan
    30 - D.I.S.C.O. - Ottawan
    31 - Gotta Go Home - Boney M
    32 - Ma Baker - Boney M
    33 - Born To Be Alive - Patrick Hernandez
    34 - Superfreak - Rick James
    35 - Moscow Disco - Telex
    36 - Sacrifice - Elton John
    37 - Don't Break My Heart - Toni Braxton
    38 - Joe Le Taxi - Vanessa Paradis
    39 - Total Eclipse Of The Heart – Bonnie Tyler
    40 - Please For Give Me - Bryan Adams
    41 - I'll Be Loving You - New Kids On The Block
    42 - Forever Young - Alphaville
    43 - One More Night - Phil Collins
    44 - Love Theme From Flashdance – Helen St. Jones
    44 - Heaven - Bryan Adams
    45 - Que No Quede Huella - Bronco
    46 - Llorar, Llorar - Los Byby's
    47 - Amor Prohibido - Grupo Bryndi's
    48 - Como Te Voy A Olvidar - Los Angeles Azules
    49 - Mi Niña Mujer - Los Angeles Azules
    50 - Pero Tu No Estas - Grupo Bryndi's
    51 - Entrega De Amor - Los Angeles Azules
    52 - Vete De Mi Lado - Los Chakales
    54 - No Te Lo Puedo Creer - La Rosa
    55 - No Me Arrepiento De Este Amor - Gilda
    56 - Casi La Mato - Los Chakales
    57 - Amor Adolescente - Grupo Red
    58 - Rompo Las Cadenas - Los Gorilas
    59 - Porque Te Amo - La Cumbia
    60 - Fue Como Una Rafaga - Rafaga
    61 - Corazon Valiente - Gilda
    62 - La Ventanita - Grupo Sombras
    63 - Nunca Me Faltes - Antonio Rios
    DOWNLOAD : fileserve/hellshare (4x957MB + 1x526MB)
    ( Click'n'Load with JDownloader )

    Code:
    http://linkcrypt.ws/dir/4bpvzv23r6213cn

    >>LINKS ARE INTERCHANGEABLE<<
    nO pASS
    ...YOU CAN SHARE MY UPLOADS...

 

 

Posting Permissions

  • You may not post new threads
  • You may not post replies
  • You may not post attachments
  • You may not edit your posts
  •