Results 1 to 1 of 1
  1. #1
    Super Member www.desirulez.net
    Join Date
    Oct 2010
    Posts
    181

    T

    Default Daddy Yankee Rompe MV HDTV 1080i.ts

    Follow us on Social Media







    Daddy Yankee Rompe MV HDTV 1080i.ts
    General
    ID : 1 (0x1)
    Complete name : Daddy.Yankee.Rompe.MV.HDTV.1080i.ts
    Format : MPEG-TS
    File size : 409 MiB
    Duration : 3mn 14s
    Overall bit rate : 17.6 Mbps

    Video
    ID : 1984 (0x7C0)
    Menu ID : 1 (0x1)
    Format : MPEG Video
    Format version : Version 2
    Format profile : [email protected]
    Format settings, BVOP : Yes
    Format settings, Matrix : Default
    Codec ID : 2
    Duration : 3mn 14s
    Bit rate mode : Variable
    Bit rate : 16.4 Mbps
    Nominal bit rate : 25.0 Mbps
    Width : 1 920 pixels
    Height : 1 080 pixels
    Display aspect ratio : 16:9
    Frame rate : 29.970 fps
    Standard : Component
    Color space : YUV
    Chroma subsampling : 4:2:0
    Bit depth : 8 bits
    Compression mode : Lossy
    Bits/(Pixel*Frame) : 0.263
    Stream size : 380 MiB (93%)

    Audio
    ID : 1985 (0x7C1)
    Menu ID : 1 (0x1)
    Format : AC-3
    Format/Info : Audio Coding 3
    Mode extension : CM (complete main)
    Codec ID : 129
    Duration : 3mn 14s
    Bit rate mode : Constant
    Bit rate : 384 Kbps
    Channel(s) : 6 channels
    Channel positions : Front: L C R, Side: L R, LFE
    Sampling rate : 48.0 KHz
    Bit depth : 16 bits
    Compression mode : Lossy
    Stream size : 8.91 MiB (2%)

    Text #1
    ID : 1984 (0x7C0)608-1
    Menu ID : 1 (0x1)
    Format : EIA-608
    Muxing mode : A/53 / DTVCC Transport
    Muxing mode, more info : Muxed in Video #1
    Duration : 3mn 14s
    Stream size : 0.00 Byte (0%)

    Text #2
    ID : 1984 (0x7C0)608-2
    Menu ID : 1 (0x1)
    Format : EIA-608
    Muxing mode : A/53 / DTVCC Transport
    Muxing mode, more info : Muxed in Video #1
    Duration : 3mn 14s
    Stream size : 0.00 Byte (0%)


    Code:
    http://www.fileserve.com/file/N6Euk27

 

 

Posting Permissions

  • You may not post new threads
  • You may not post replies
  • You may not post attachments
  • You may not edit your posts
  •