Results 1 to 1 of 1
  1. #1

    Thumbs up The Classic Project - Bonus Project Vol. 9 (Pop)

    Follow us on Social Media







    The Classic Project - Bonus Project Vol.9 (Pop)[DVD5]



    INFO :
    Code:
    Format                           : MPEG-PS
    File size                        : 4 340 MiB
    Overall bit rate                 : 9 810 Kbps
    Writing library                  : encoded by TMPGEnc 4.0 XPress Version. 4.2.3.193
    
    Video
    ID                               : 224 (0xE0)
    Format                           : MPEG Video
    Format version                   : Version 2
    Format profile                   : [email protected]
    Format settings, BVOP            : Yes
    Format settings, Matrix          : Default
    Format settings, GOP             : M=3, N=16
    Bit rate mode                    : Constant
    Bit rate                         : 9 200 Kbps
    Width                            : 720 pixels
    Height                           : 480 pixels
    Display aspect ratio             : 4:3
    Frame rate                       : 29.970 fps
    Standard                         : NTSC
    Color space                      : YUV
    Chroma subsampling               : 4:2:0
    Bit depth                        : 8 bits
    Scan type                        : Interlaced
    Scan order                       : Top Field First
    Compression mode                 : Lossy
    Bits/(Pixel*Frame)               : 0.888
    Stream size                      : 957 MiB (93%)
    Writing library                  : TMPGEnc XPress 4.2.3.193
    
    Audio
    ID                               : 128 (0x80)
    Format                           : AC-3
    Format/Info                      : Audio Coding 3
    Mode extension                   : CM (complete main)
    Bit rate mode                    : Constant
    Bit rate                         : 448 Kbps
    Channel(s)                       : 2 channels
    Channel positions                : Front: L R
    Sampling rate                    : 48.0 KHz
    Bit depth                        : 16 bits
    Compression mode                 : Lossy
    Stream size                      : 46.8 MiB (5%)
    
    Recovery : +5%
    Cover : No
    Compression method : Best
    Type archive : Rar (4x957MB + 1x606MB)
    
    Tracklist:
    #SORRY NO TRACKLIST#
    FILESERVE ENCRYPT LINKS
    ( Click'n'Load with JDownloader )

    Code:
    http://u.bb/8Rz
    HELLSHARE ENCRYPT LINKS
    ( Weblinks, Click'n'Load, DLC, CCF, RSDF )

    Code:
    http://u.bb/8S0
    ...copy link in browser, wait 5s, click on "SKIP AD", click on "ClickŽnŽLoad" or other and download...

    >>LINKS ARE INTERCHANGEABLE<<
    nO pASS
    ...YOU CAN SHARE MY UPLOADS...

 

 

Posting Permissions

  • You may not post new threads
  • You may not post replies
  • You may not post attachments
  • You may not edit your posts
  •