Results 1 to 1 of 1
  1. #1
    Super Member www.desirulez.net
    Join Date
    Oct 2010
    Posts
    181

    T

    Default *****cat Dolls Stickwitu MHD HDTV.1080i.ts

    Follow us on Social Media







    *****cat Dolls Stickwitu MHD HDTV.1080i.ts
    General
    ID : 1 (0x1)
    Complete name : *****cat.Dolls.Stickwitu.MHD.HDTV.1080i.ts
    Format : MPEG-TS
    File size : 384 MiB
    Duration : 3mn 31s
    Overall bit rate : 15.2 Mbps

    Video
    ID : 17 (0x11)
    Menu ID : 1 (0x1)
    Format : MPEG Video
    Format version : Version 2
    Format profile : [email protected]
    Format settings, BVOP : Yes
    Format settings, Matrix : Default
    Codec ID : 2
    Duration : 3mn 31s
    Bit rate mode : Variable
    Bit rate : 14.1 Mbps
    Nominal bit rate : 19.0 Mbps
    Width : 1 920 pixels
    Height : 1 080 pixels
    Display aspect ratio : 16:9
    Frame rate : 29.970 fps
    Standard : Component
    Color space : YUV
    Chroma subsampling : 4:2:0
    Bit depth : 8 bits
    Compression mode : Lossy
    Bits/(Pixel*Frame) : 0.227
    Stream size : 356 MiB (93%)

    Audio
    ID : 20 (0x14)
    Menu ID : 1 (0x1)
    Format : AC-3
    Format/Info : Audio Coding 3
    Mode extension : CM (complete main)
    Codec ID : 129
    Duration : 3mn 31s
    Bit rate mode : Constant
    Bit rate : 384 Kbps
    Channel(s) : 2 channels
    Channel positions : Front: L R
    Sampling rate : 48.0 KHz
    Bit depth : 16 bits
    Compression mode : Lossy
    Delay relative to video : -527ms
    Stream size : 9.67 MiB (3%)
    Language : English

    Text #1
    ID : 17 (0x11)608-1
    Menu ID : 1 (0x1)
    Format : EIA-608
    Muxing mode : A/53 / DTVCC Transport
    Muxing mode, more info : Muxed in Video #1
    Duration : 3mn 31s
    Stream size : 0.00 Byte (0%)

    Text #2
    ID : 17 (0x11)608-2
    Menu ID : 1 (0x1)
    Format : EIA-608
    Muxing mode : A/53 / DTVCC Transport
    Muxing mode, more info : Muxed in Video #1
    Duration : 3mn 31s
    Stream size : 0.00 Byte (0%)

    Text #3
    ID : 17 (0x11)1
    Menu ID : 1 (0x1)
    Format : EIA-708
    Muxing mode : A/53 / DTVCC Transport
    Muxing mode, more info : Muxed in Video #1
    Duration : 3mn 31s
    Stream size : 0.00 Byte (0%)
    [img]http://img812.imageshack.us/img812/2867/*****catdollsstickwitum.jpg[/img]

    [img]http://img705.imageshack.us/img705/2867/*****catdollsstickwitum.jpg[/img]

    [img]http://img228.imageshack.us/img228/2867/*****catdollsstickwitum.jpg[/img]

    Code:
    http://www.fileserve.com/file/4MgnFaW
    [img]http://img607.imageshack.us/img607/2867/*****catdollsstickwitum.jpg[/img]

 

 

Posting Permissions

  • You may not post new threads
  • You may not post replies
  • You may not post attachments
  • You may not edit your posts
  •