Results 1 to 1 of 1
  1. #1

    Default Ballads & Love Songs Vol. 4 (2009)

    Follow us on Social Media







    Ballads & Love Songs Vol. 4 (2009)[DVD5]



    INFO :
    Code:
    Format                           : MPEG-PS
    File size                        : 4 230 MiB
    Duration                         : 1h 12mn 2s
    Overall bit rate                 : 7 477 Kbps
    Writing library                  : (c) 1998-2007 Womble Multimedia, Inc. / MPEG Video Wizard (12/2007) / Mar 31 2008
    
    Video
    ID                               : 224 (0xE0)
    Format                           : MPEG Video
    Format version                   : Version 2
    Format profile                   : [email protected]
    Format settings, BVOP            : Yes
    Format settings, Matrix          : Default
    Bit rate mode                    : Variable
    Bit rate                         : 5 792 Kbps
    Nominal bit rate                 : 9 802 Kbps
    Width                            : 720 pixels
    Height                           : 480 pixels
    Display aspect ratio             : 4:3
    Frame rate                       : 29.970 fps
    Standard                         : NTSC
    Color space                      : YUV
    Chroma subsampling               : 4:2:0
    Bit depth                        : 8 bits
    Scan type                        : Progressive
    Compression mode                 : Lossy
    Bits/(Pixel*Frame)               : 0.559
    Stream size                      : 793 MiB (77%)
    Writing library                  : (c) 1998-2007 Womble Multimedia, Inc. / MPEG Video Wizard (12/2007) / Mar 31 2008
    
    Audio
    ID                               : 160 (0xA0)
    Format                           : PCM
    Format settings, Endianness      : Big
    Format settings, Sign            : Signed
    Muxing mode                      : DVD-Video
    Bit rate mode                    : Constant
    Bit rate                         : 1 536 Kbps
    Channel(s)                       : 2 channels
    Channel positions                : Front: L R
    Sampling rate                    : 48.0 KHz
    Bit depth                        : 16 bits
    Stream size                      : 210 MiB (21%)
    
    Recovery : +5%
    Cover : No
    Compression method : Best
    
    Tracklist :
        * Phil Collins - Another Day In Paradise
        * Frankie Goes To Hollywood - The Power Of Love
        * Bangles - Eternal Flame
        * Janet Jackson - Let's Wait Awhile
        * Kool & The Gang - Cherish
        * Cyndi Lauper - True Colors
        * Ll Cool J - I Need Love
        * Aerosmith - Crazy (Director`s Cut)
        * Paula Abdul - Rush, Rush
        * Celine Dion - The Power Of Love
        * Berlin - Take My Breath Away
        * Prince - Diamonds & Pearls
        * Bon Jovi - Miracle
        * Maria McKee - Show Me Heaven
        * Elton John - Nikita
        * Guns N' Roses - November Rain
    DOWNLOAD : fileserve/hellshare
    ( DLC with JDownloader )

    Code:
    http://www.fileserve.com/file/wkjKwYe

    >>LINKS ARE INTERCHANGEABLE<<
    nO pASS
    ...YOU CAN SHARE MY UPLOADS...

 

 

Posting Permissions

  • You may not post new threads
  • You may not post replies
  • You may not post attachments
  • You may not edit your posts
  •