Results 1 to 1 of 1
  1. #1
    Super Member www.desirulez.net
    Join Date
    Oct 2010
    Posts
    181

    T

    Default Andreea Banica Ft Dony very hot - Samba 1080p

    Follow us on Social Media







    Andreea Banica Ft Dony very hot - Samba 1080p
    General

    Complete name : ENGLISH VIDEO\english\Andreea Banica Ft Dony - Samba 1080p.mkv
    Format : Matroska
    File size : 219 MiB
    Duration : 3mn 16s
    Overall bit rate : 9 365 Kbps
    Encoded date : UTC 2009-12-06 21:08:43
    Writing application : mkvmerge v2.9.9 ('Tutu') built on Nov 25 2009 21:13:32
    Writing library : libebml v0.7.9 + libmatroska v0.8.1

    Video
    ID : 1
    Format : AVC
    Format/Info : Advanced Video Codec
    Format profile : [email protected]
    Format settings, CABAC : Yes
    Format settings, ReFrames : 3 frames
    Codec ID : V_MPEG4/ISO/AVC
    Duration : 3mn 16s
    Bit rate mode : Variable
    Bit rate : 8 859 Kbps
    Maximum bit rate : 40.0 Mbps
    Width : 1 920 pixels
    Height : 1 080 pixels
    Display aspect ratio : 16:9
    Frame rate : 25.000 fps
    Color space : YUV
    Chroma subsampling : 4:2:0
    Bit depth : 8 bits
    Scan type : Progressive
    Bits/(Pixel*Frame) : 0.171
    Stream size : 208 MiB (95%)
    Title : Andreea Banica Ft Dony - Samba Rip Arapkadri
    Language : English
    Audio
    ID : 2
    Format : DTS
    Format/Info : Digital Theater Systems
    Codec ID : A_DTS
    Duration : 3mn 16s
    Bit rate mode : Constant
    Bit rate : 320 Kbps
    Channel(s) : 2 channels
    Channel positions : Front: L R
    Sampling rate : 48.0 KHz
    Bit depth : 24 bits
    Compression mode : Lossy
    Stream size : 7.50 MiB (3%)
    Title : Dts 2,0
    Language : English










    Code:
    http://www.fileserve.com/file/Q9mbzHY

 

 

Posting Permissions

  • You may not post new threads
  • You may not post replies
  • You may not post attachments
  • You may not edit your posts
  •