Results 1 to 1 of 1
  1. #1

    Thumbs up Alphaville - The Video Collection 1984-2005 [DVD5]

    Follow us on Social Media







    Alphaville - The Video Collection 1984-2005 [DVD5]


    INFO :
    Code:
    Format                           : MPEG-PS
    File size                        : 4 290 MiB
    Duration                         : 2hour 17mn 01s
    Overall bit rate                 : 5 510 Kbps
    Writing library                  : encoded by TMPGEnc 4.0 XPress Version. 4.5.1.254
    
    Video
    ID                               : 224 (0xE0)
    Format                           : MPEG Video
    Format version                   : Version 2
    Format profile                   : [email protected]
    Format settings, Matrix          : Default
    Bit rate mode                    : Variable
    Bit rate                         : 5 099 Kbps
    Nominal bit rate                 : 8 000 Kbps
    Width                            : 720 pixels
    Height                           : 576 pixels
    Display aspect ratio             : 4/3
    Frame rate                       : 25.000 fps
    Standard                         : PAL
    Colorimetry                      : 4:2:0
    Scan type                        : Progressive
    Bits/(Pixel*Frame)               : 0.492
    Stream size                      : 947 MiB (93%)
    Writing library                  : TMPGEnc XPress 4.5.1.254
    
    Audio
    ID                               : 128 (0x80)
    Format                           : AC-3
    Format/Info                      : Audio Coding 3
    Bit rate mode                    : Constant
    Bit rate                         : 192 Kbps
    Channel(s)                       : 2 channels
    Channel positions                : L R
    Sampling rate                    : 48.0 KHz
    Stream size                      : 35.7 MiB (3%)
    
    Menu
    Format                           : DVD-Video
    
    
    Menu : yes
    Cover : yes
    Recovery : +5%
    Compression method : best
    
    
    TRACK LIST:
    
    Big in Japan (Original Videoclip)
    ForeverYoung (Original Videoclip)
    Dance With Me (Moscow 2005)
    ForeverYoung (Moscow 2005)
    Big in Japan (Moscow 2005)
    Big in Japan (TPS 1984)
    Forever Young (TPS 1984)
    Forever Young (NDR 1986)
    Universal Daddy (Original Videoclip)
    Dance With Me (Original Videoclip)
    Dance with me (FB 86)
    Fallen Angel (mult)
    For A Million
    Romeos
    One Step Behind You (Original Videoclip)
    Soul Messiah (Original Videoclip)
    Ariana
    A Victory Of Love
    The Jet Set (85 Live)
    Sound like a Melody (Original)
    Red Rose (original)
    Big in Japan (Swedish TV 1984)
    Forever Young (Swedish TV 1984)
    Forever Young (Goldene Europa 1984)
    Universal Daddy (Ílandssommar 86)
    Afternoons in Utopia (Ílandssommar 86)
    Sensations (Ílandssommar 86)
    Sensations (Original Videoclip)
    Jerusalem (Club)
    Jerusalem (86)
    Fools German TelevisionFools (original)
    Dance With Me (Razzel 86)
    Jet Set (Original Videoclip)
    Sounds like a Melody (France TV) 
    
    ..::UNOFFICIAL VERSION::..
    [__::FOR FAN::__]

    Code:
    http://download.cz.hellshare.com/all-fa/pha-all-part1.rar/569895
    http://download.cz.hellshare.com/all-fa/pha-all-part2.rar/570436
    http://download.cz.hellshare.com/all-fa/pha-all-part3.rar/570687
    http://download.cz.hellshare.com/all-fa/pha-all-part4.rar/570888
    http://download.cz.hellshare.com/all-fa/pha-all-part5.rar/571046
    PASSWORD :
    Code:
    !forever DM!

 

 

Posting Permissions

  • You may not post new threads
  • You may not post replies
  • You may not post attachments
  • You may not edit your posts
  •