Results 1 to 1 of 1
  1. #1

    Thumbs up Shakalaka Bum Bum (2007) - Untouched - DVD9 - NTSC - Ibraram - DrC

    Follow us on Social Media








    Format : MPEG-PS
    Overall bit rate : 24.9 Mbps

    Video
    ID : 224 (0xE0)
    Format : MPEG Video
    Format version : Version 2
    Format profile : [email protected]
    Format settings, BVOP : Yes
    Format settings, Matrix : Custom
    Format settings, GOP : M=3, N=15
    Bit rate : 24.0 Mbps
    Maximum bit rate : 5 000 Kbps
    Width : 720 pixels
    Height : 480 pixels
    Display aspect ratio : 16:9
    Frame rate : 29.970 fps
    Standard : NTSC
    Color space : YUV
    Chroma subsampling : 4:2:0
    Bit depth : 8 bits
    Scan type : Interlaced
    Scan order : Top Field First
    Compression mode : Lossy
    Bits/(Pixel*Frame) : 2.314
    Stream size : 985 MiB (96%)

    Audio
    ID : 189 (0xBD)-128 (0x80)
    Format : AC-3
    Format/Info : Audio Coding 3
    Mode extension : CM (complete main)
    Muxing mode : DVD-Video
    Bit rate mode : Constant
    Bit rate : 448 Kbps
    Channel(s) : 6 channels
    Channel positions : Front: L C R, Side: L R, LFE
    Sampling rate : 48.0 KHz
    Bit depth : 16 bits
    Compression mode : Lossy
    Delay relative to video : -261ms
    Stream size : 18.4 MiB (2%)










    700MB Parts | INTERCHANGEABLE LINKS | NO PASSWORD


    Code:
    http://www.netload.in/dateiBBQ7awfcNR/AMP-Shakalaka.Bum.Bum.2007.Untouched.DVD9.NTSC.Ibraram.part01.rar.htm
    http://www.netload.in/datei9l2q8QrzaB/AMP-Shakalaka.Bum.Bum.2007.Untouched.DVD9.NTSC.Ibraram.part02.rar.htm
    http://www.netload.in/dateihxZMDyx0L1/AMP-Shakalaka.Bum.Bum.2007.Untouched.DVD9.NTSC.Ibraram.part03.rar.htm
    http://www.netload.in/dateiH5OTQkgveQ/AMP-Shakalaka.Bum.Bum.2007.Untouched.DVD9.NTSC.Ibraram.part04.rar.htm
    http://www.netload.in/dateiwhLEXP9H1Z/AMP-Shakalaka.Bum.Bum.2007.Untouched.DVD9.NTSC.Ibraram.part05.rar.htm
    http://www.netload.in/dateiZ1Y6HceVSL/AMP-Shakalaka.Bum.Bum.2007.Untouched.DVD9.NTSC.Ibraram.part06.rar.htm
    http://www.netload.in/dateirOqANjvLyb/AMP-Shakalaka.Bum.Bum.2007.Untouched.DVD9.NTSC.Ibraram.part07.rar.htm
    http://www.netload.in/dateiXN2lVEYFlo/AMP-Shakalaka.Bum.Bum.2007.Untouched.DVD9.NTSC.Ibraram.part08.rar.htm
    http://www.netload.in/dateiABSlEf1yqe/AMP-Shakalaka.Bum.Bum.2007.Untouched.DVD9.NTSC.Ibraram.part09.rar.htm

    Code:
    http://ul.to/vhd0dz05/AMP-Shakalaka.Bum.Bum.2007.Untouched.DVD9.NTSC.Ibraram.part01.rar
    http://ul.to/h20w6x3i/AMP-Shakalaka.Bum.Bum.2007.Untouched.DVD9.NTSC.Ibraram.part02.rar
    http://ul.to/8dzbte0w/AMP-Shakalaka.Bum.Bum.2007.Untouched.DVD9.NTSC.Ibraram.part03.rar
    http://ul.to/3s5iwuwj/AMP-Shakalaka.Bum.Bum.2007.Untouched.DVD9.NTSC.Ibraram.part04.rar
    http://ul.to/nfimlyk7/AMP-Shakalaka.Bum.Bum.2007.Untouched.DVD9.NTSC.Ibraram.part05.rar
    http://ul.to/qepwgjs7/AMP-Shakalaka.Bum.Bum.2007.Untouched.DVD9.NTSC.Ibraram.part06.rar
    http://ul.to/djze8n4w/AMP-Shakalaka.Bum.Bum.2007.Untouched.DVD9.NTSC.Ibraram.part07.rar
    http://ul.to/fp2tmjq8/AMP-Shakalaka.Bum.Bum.2007.Untouched.DVD9.NTSC.Ibraram.part08.rar
    http://ul.to/i19zen52/AMP-Shakalaka.Bum.Bum.2007.Untouched.DVD9.NTSC.Ibraram.part09.rar

    Code:
    http://www.wupload.com/file/2653376867/AMP-Shakalaka.Bum.Bum.2007.Untouched.DVD9.NTSC.Ibraram.part01.rar
    http://www.wupload.com/file/2653376877/AMP-Shakalaka.Bum.Bum.2007.Untouched.DVD9.NTSC.Ibraram.part02.rar
    http://www.wupload.com/file/2653376887/AMP-Shakalaka.Bum.Bum.2007.Untouched.DVD9.NTSC.Ibraram.part03.rar
    http://www.wupload.com/file/2653377027/AMP-Shakalaka.Bum.Bum.2007.Untouched.DVD9.NTSC.Ibraram.part04.rar
    http://www.wupload.com/file/2653377042/AMP-Shakalaka.Bum.Bum.2007.Untouched.DVD9.NTSC.Ibraram.part05.rar
    http://www.wupload.com/file/2653377112/AMP-Shakalaka.Bum.Bum.2007.Untouched.DVD9.NTSC.Ibraram.part06.rar
    http://www.wupload.com/file/2653377117/AMP-Shakalaka.Bum.Bum.2007.Untouched.DVD9.NTSC.Ibraram.part07.rar
    http://www.wupload.com/file/2653377127/AMP-Shakalaka.Bum.Bum.2007.Untouched.DVD9.NTSC.Ibraram.part08.rar
    http://www.wupload.com/file/2653377122/AMP-Shakalaka.Bum.Bum.2007.Untouched.DVD9.NTSC.Ibraram.part09.rar
    Man is still the most extraordinary computer of all.




 

 

Posting Permissions

  • You may not post new threads
  • You may not post replies
  • You may not post attachments
  • You may not edit your posts
  •