Results 1 to 1 of 1
  1. #1
    dR Rockers www.desirulez.net
    Join Date
    Aug 2011
    Posts
    5,859

    T

    Cool Laadla [1994] - 1.40GB - DVDRip - XviD - AC3 - KK4ever

    Follow us on Social Media








    ************************************************** ***************
    Laadla [1994] DVDRip Xvid AC3 - 6 @ KK4ever Release
    ************************************************** ***************
    HTML Code:
    General
    Complete name : E:\Ripped\Laadla [1994] DVDRip Xvid AC3 - 6 @ K\Laadla [1994] DVDRip Xvid AC3 - 6 @ K.avi
    Format : AVI
    Format/Info : Audio Video Interleave
    File size : 1.40 GiB
    Duration : 2h 49mn
    Overall bit rate : 1 183 Kbps

    Video
    ID : 0
    Format : MPEG-4 Visual
    Format profile : Advanced [email protected]
    Format settings, BVOP : 2
    Format settings, QPel : No
    Format settings, GMC : No warppoints
    Format settings, Matrix : Default (H.263)
    Codec ID : XVID
    Codec ID/Hint : XviD
    Duration : 2h 49mn
    Bit rate : 919 Kbps
    Width : 640 pixels
    Height : 304 pixels
    Display aspect ratio : 2.2:1
    Frame rate : 23.976 fps
    Color space : YUV
    Chroma subsampling : 4:2:0
    Bit depth : 8 bits
    Scan type : Progressive
    Compression mode : Lossy
    Bits/(Pixel*Frame) : 0.197
    Stream size : 1.08 GiB (78%)
    Writing library : XviD 1.2.1 (UTC 2008-12-04)

    Audio
    ID : 1
    Format : AC-3
    Format/Info : Audio Coding 3
    Mode extension : CM (complete main)
    Codec ID : 2000
    Duration : 2h 49mn
    Bit rate mode : Constant
    Bit rate : 256 Kbps
    Channel(s) : 3 channels
    Channel positions : Front: L R, Side: C
    Sampling rate : 48.0 KHz
    Bit depth : 16 bits
    Compression mode : Lossy
    Stream size : 309 MiB (22%)
    Alignment : Aligned on interleaves
    Interleave, duration : 64 ms (1.53 video frames)
    Interleave, preload duration : 192 ms









    SINGLE LINK

    Code:
    http://www.filesonic.com/file/ir3UP1J/Laadla [1994] DVDRip Xvid AC3 - 6 @ K.avi
    Code:
    http://www.fileserve.com/file/DMEjbDa/Laadla [1994] DVDRip Xvid AC3 - 6 @ K.avi
    Code:
    http://www.filejungle.com/f/Ctt8Xt/Laadla [1994] DVDRip Xvid AC3 - 6 @ K.avi

    450MB LINKS


    Code:
    http://www.filesonic.com/file/qy2WzVt/Laadla [1994] DVDRip Xvid AC3 - 6 @ K.avi.001
    http://www.filesonic.com/file/JHgCvHy/Laadla [1994] DVDRip Xvid AC3 - 6 @ K.avi.002
    http://www.filesonic.com/file/cmVPtkl/Laadla [1994] DVDRip Xvid AC3 - 6 @ K.avi.003
    http://www.filesonic.com/file/hjd0aX3/Laadla [1994] DVDRip Xvid AC3 - 6 @ K.avi.004
    
    
    http://www.fileserve.com/file/r2V6rBU/Laadla [1994] DVDRip Xvid AC3 - 6 @ K.avi.001
    http://www.fileserve.com/file/dnJvZY9/Laadla [1994] DVDRip Xvid AC3 - 6 @ K.avi.002
    http://www.fileserve.com/file/JMF4JWR/Laadla [1994] DVDRip Xvid AC3 - 6 @ K.avi.003
    http://www.fileserve.com/file/vVyEpQH/Laadla [1994] DVDRip Xvid AC3 - 6 @ K.avi.004
    
    
    
    http://www.filejungle.com/f/eAevFK/Laadla [1994] DVDRip Xvid AC3 - 6 @ K.avi.001
    http://www.filejungle.com/f/JABYVj/Laadla [1994] DVDRip Xvid AC3 - 6 @ K.avi.002
    http://www.filejungle.com/f/d2uQuM/Laadla [1994] DVDRip Xvid AC3 - 6 @ K.avi.003
    http://www.filejungle.com/f/gaY6Fr/Laadla [1994] DVDRip Xvid AC3 - 6 @ K.avi.004

 

 

Posting Permissions

  • You may not post new threads
  • You may not post replies
  • You may not post attachments
  • You may not edit your posts
  •