Results 1 to 1 of 1
  1. #1
    dR Rockers www.desirulez.net
    Join Date
    Aug 2011
    Posts
    5,859

    T

    Default Footpath (2003) - Untouched - NTSC - DVD9 - [TDBB]

    Follow us on Social Media







    ~ | Team Desi Bad Boyz | ~ PRESENTS:





    [u]Footpath (2003) Untouched NTSC DVD9 [TDBB][u]



    General
    Complete name : Footpath (2003) Untouched NTSC DVD9 [TDBB]
    Format : MPEG-PS
    File size : 1 024 MiB
    Duration : 2h 44mn 16s
    Overall bit rate : 18.7 Mbps

    Video
    ID : 224 (0xE0)
    Format : MPEG Video
    Format version : Version 2
    Format profile : [email protected]
    Format settings, BVOP : No
    Format settings, Matrix : Default
    Format settings, GOP : M=1, N=16
    Duration : 2h 44mn 16s
    Bit rate : 17.9 Mbps
    Maximum bit rate : 4 500 Kbps
    Width : 704 pixels
    Height : 480 pixels
    Display aspect ratio : 4:3
    Frame rate : 29.970 fps
    Standard : NTSC
    Color space : YUV
    Chroma subsampling : 4:2:0
    Bit depth : 8 bits
    Scan type : Interlaced
    Scan order : Top Field First
    Compression mode : Lossy
    Bits/(Pixel*Frame) : 1.768
    Stream size : 982 MiB (96%)

    Audio
    ID : 189 (0xBD)-128 (0x80)
    Format : AC-3
    Format/Info : Audio Coding 3
    Mode extension : CM (complete main)
    Muxing mode : DVD-Video
    Duration : 2h 44mn 16s
    Bit rate mode : Constant
    Bit rate : 384 Kbps
    Channel(s) : 6 channels
    Channel positions : Front: L C R, Side: L R, LFE
    Sampling rate : 48.0 KHz
    Bit depth : 16 bits
    Compression mode : Lossy
    Stream size : 194 KiB (0%)









    Code:
    http://www.fileserve.com/file/mbwQM4z/Footpath (2003) Untouched NTSC DVD9 [TDBB].part1.rar
    http://www.fileserve.com/file/q2TTexG/Footpath (2003) Untouched NTSC DVD9 [TDBB].part2.rar
    http://www.fileserve.com/file/hZR7NHf/Footpath (2003) Untouched NTSC DVD9 [TDBB].part3.rar
    http://www.fileserve.com/file/NJXfRZp/Footpath (2003) Untouched NTSC DVD9 [TDBB].part4.rar
    http://www.fileserve.com/file/x2AsxgH/Footpath (2003) Untouched NTSC DVD9 [TDBB].part5.rar
    http://www.fileserve.com/file/sUYjb2E/Footpath (2003) Untouched NTSC DVD9 [TDBB].part6.rar
    http://www.fileserve.com/file/huAxyCc/Footpath (2003) Untouched NTSC DVD9 [TDBB].part7.rar
    Code:
    http://www.filesonic.com/file/2543099661/Footpath (2003) Untouched NTSC DVD9 [TDBB].part1.rar
    http://www.filesonic.com/file/2543109591/Footpath (2003) Untouched NTSC DVD9 [TDBB].part2.rar
    http://www.filesonic.com/file/2543104831/Footpath (2003) Untouched NTSC DVD9 [TDBB].part3.rar
    http://www.filesonic.com/file/2543099751/Footpath (2003) Untouched NTSC DVD9 [TDBB].part4.rar
    http://www.filesonic.com/file/2543105511/Footpath (2003) Untouched NTSC DVD9 [TDBB].part5.rar
    http://www.filesonic.com/file/2543107771/Footpath (2003) Untouched NTSC DVD9 [TDBB].part6.rar
    http://www.filesonic.com/file/2543105281/Footpath (2003) Untouched NTSC DVD9 [TDBB].part7.rar
    Code:
    http://www.wupload.com/file/389600745/Footpath (2003) Untouched NTSC DVD9 [TDBB].part1.rar
    http://www.wupload.com/file/389589264/Footpath (2003) Untouched NTSC DVD9 [TDBB].part2.rar
    http://www.wupload.com/file/389600740/Footpath (2003) Untouched NTSC DVD9 [TDBB].part3.rar
    http://www.wupload.com/file/389938341/Footpath (2003) Untouched NTSC DVD9 [TDBB].part4.rar
    http://www.wupload.com/file/389600772/Footpath (2003) Untouched NTSC DVD9 [TDBB].part5.rar
    http://www.wupload.com/file/389938342/Footpath (2003) Untouched NTSC DVD9 [TDBB].part6.rar
    http://www.wupload.com/file/389930155/Footpath (2003) Untouched NTSC DVD9 [TDBB].part7.rar


 

 

Posting Permissions

  • You may not post new threads
  • You may not post replies
  • You may not post attachments
  • You may not edit your posts
  •