Results 1 to 1 of 1
  1. #1

    Thumbs up Adalat (1976) Untouched NTSC DVD 9 [TDBB]

    Follow us on Social Media








    Code:
    General
    Complete name : Adalat (1976) Untouched NTSC DVD 9 [TDBB]
    Format : MPEG-PS
    File size : 1 024 MiB
    Duration : 2h 25mn 37s
    Overall bit rate : 7 684 Kbps
    
    Video
    ID : 224 (0xE0)
    Format : MPEG Video
    Format version : Version 2
    Format profile : [email protected]
    Format settings, BVOP : Yes
    Format settings, Matrix : Default
    Duration : 2h 25mn 37s
    Bit rate : 7 339 Kbps
    Maximum bit rate : 2 500 Kbps
    Width : 720 pixels
    Height : 480 pixels
    Display aspect ratio : 4:3
    Frame rate : 29.970 fps
    Standard : NTSC
    Color space : YUV
    Chroma subsampling : 4:2:0
    Bit depth : 8 bits
    Scan type : Interlaced
    Scan order : Top Field First
    Compression mode : Lossy
    Bits/(Pixel*Frame) : 0.709
    Stream size : 978 MiB (96%)
    
    Audio
    ID : 189 (0xBD)-128 (0x80)
    Format : AC-3
    Format/Info : Audio Coding 3
    Mode extension : CM (complete main)
    Muxing mode : DVD-Video
    Duration : 2h 25mn 37s
    Bit rate mode : Constant
    Bit rate : 192 Kbps
    Channel(s) : 2 channels
    Channel positions : Front: L R
    Sampling rate : 48.0 KHz
    Bit depth : 16 bits
    Compression mode : Lossy
    Stream size : 25.6 MiB (2%)








    Fileserve:
    Code:
    http://www.fileserve.com/file/NsND56R/Adalat (1976) Untouched NTSC DVD 9 [TDBB].part1.rar
    http://www.fileserve.com/file/3wzPYz4/Adalat (1976) Untouched NTSC DVD 9 [TDBB].part2.rar
    http://www.fileserve.com/file/sXvcDBf/Adalat (1976) Untouched NTSC DVD 9 [TDBB].part3.rar
    http://www.fileserve.com/file/nmPt2Sr/Adalat (1976) Untouched NTSC DVD 9 [TDBB].part4.rar
    http://www.fileserve.com/file/JyDxJ5s/Adalat (1976) Untouched NTSC DVD 9 [TDBB].part5.rar
    http://www.fileserve.com/file/xpk6GAX/Adalat (1976) Untouched NTSC DVD 9 [TDBB].part6.rar
    http://www.fileserve.com/file/RbEh7zb/Adalat (1976) Untouched NTSC DVD 9 [TDBB].part7.rar
    http://www.fileserve.com/file/MYznKQv/Adalat (1976) Untouched NTSC DVD 9 [TDBB].part8.rar
    Filesonic:
    Code:
    http://www.filesonic.com/file/1505501031/Adalat (1976) Untouched NTSC DVD 9 [TDBB].part1.rar
    http://www.filesonic.com/file/1505502551/Adalat (1976) Untouched NTSC DVD 9 [TDBB].part2.rar
    http://www.filesonic.com/file/1505502471/Adalat (1976) Untouched NTSC DVD 9 [TDBB].part3.rar
    http://www.filesonic.com/file/1505502531/Adalat (1976) Untouched NTSC DVD 9 [TDBB].part4.rar
    http://www.filesonic.com/file/1505545861/Adalat (1976) Untouched NTSC DVD 9 [TDBB].part5.rar
    http://www.filesonic.com/file/1505503351/Adalat (1976) Untouched NTSC DVD 9 [TDBB].part6.rar
    http://www.filesonic.com/file/1505523121/Adalat (1976) Untouched NTSC DVD 9 [TDBB].part7.rar
    http://www.filesonic.com/file/1505523251/Adalat (1976) Untouched NTSC DVD 9 [TDBB].part8.rar
    Wupload:
    Code:
    http://www.wupload.com/file/64583746/Adalat (1976) Untouched NTSC DVD 9 [TDBB].part1.rar
    http://www.wupload.com/file/64583766/Adalat (1976) Untouched NTSC DVD 9 [TDBB].part2.rar
    http://www.wupload.com/file/64589830/Adalat (1976) Untouched NTSC DVD 9 [TDBB].part3.rar
    http://www.wupload.com/file/64583764/Adalat (1976) Untouched NTSC DVD 9 [TDBB].part4.rar
    http://www.wupload.com/file/64583998/Adalat (1976) Untouched NTSC DVD 9 [TDBB].part5.rar
    http://www.wupload.com/file/64589828/Adalat (1976) Untouched NTSC DVD 9 [TDBB].part6.rar
    http://www.wupload.com/file/64588418/Adalat (1976) Untouched NTSC DVD 9 [TDBB].part7.rar
    http://www.wupload.com/file/64589908/Adalat (1976) Untouched NTSC DVD 9 [TDBB].part8.rar
    Man is still the most extraordinary computer of all.




 

 

Posting Permissions

  • You may not post new threads
  • You may not post replies
  • You may not post attachments
  • You may not edit your posts
  •