Results 1 to 1 of 1
  1. #1
    dR Contributor www.desirulez.net
    Join Date
    Mar 2010
    Posts
    2,245

    T

    Default Zindagi Na Milegi Dobara (2011) DVDRip x264 [DDR]

    Follow us on Social Media











    Zindagi Na Milegi Dobara (2011) DVDRip x264 [DDR]








    Format version : Version 2
    File size : 701 MiB
    Duration : 2h 34mn
    Overall bit rate : 634 Kbps
    Encoded date : UTC 2011-09-08 05:12:00
    Writing application : mkvmerge v4.9.1 ('Ich will') built on Jul 11 2011 23:53:15
    Writing library : libebml v1.2.1 + libmatroska v1.1.1

    Video
    ID : 1
    Format : AVC
    Format/Info : Advanced Video Codec
    Format profile : [email protected]
    Format settings, CABAC : Yes
    Format settings, ReFrames : 3 frames
    Muxing mode : Header stripping
    Codec ID : V_MPEG4/ISO/AVC
    Duration : 2h 34mn
    Bit rate mode : Variable
    Bit rate : 540 Kbps
    Maximum bit rate : 40.0 Mbps
    Width : 640 pixels
    Height : 272 pixels
    Display aspect ratio : 2.35:1
    Frame rate : 23.976 fps
    Color space : YUV
    Chroma subsampling : 4:2:0
    Bit depth : 8 bits
    Scan type : Progressive
    Bits/(Pixel*Frame) : 0.129
    Stream size : 588 MiB (84%)
    Title : ZNMD [DDR]
    Writing library : x264 core 116 r2074 2641b9e
    Language : Hindi

    Audio
    ID : 2
    Format : MPEG Audio
    Format version : Version 1
    Format profile : Layer 3
    Mode : Joint stereo
    Mode extension : MS Stereo
    Muxing mode : Header stripping
    Codec ID : A_MPEG/L3
    Codec ID/Hint : MP3
    Duration : 2h 34mn
    Bit rate mode : Variable
    Bit rate : 89.5 Kbps
    Nominal bit rate : 96.0 Kbps
    Channel(s) : 2 channels
    Sampling rate : 32.0 KHz
    Compression mode : Lossy
    Stream size : 98.9 MiB (14%)
    Title : Hindi [DDR]
    Writing library : LAME3.98r
    Encoding settings : -m j -V 4 -q 2 -lowpass 15.1 --abr 96
    Language : Hindi

    Text #1
    ID : 3
    Format : VobSub
    Muxing mode : zlib
    Codec ID : S_VOBSUB
    Codec ID/Info : The same subtitle format used on DVDs
    Title : ENG [DDR]
    Language : English

    Text #2
    ID : 4
    Format : VobSub
    Muxing mode : zlib
    Codec ID : S_VOBSUB
    Codec ID/Info : The same subtitle format used on DVDs
    Title : ARABIC [DDR}
    Language : Arabic


    Credits To :- DDR





















    Code:
    http://www.filesonic.com/file/1899740011/Zindagi.Na.Milegi.Dobara.2011.1CD.DVDRip.x264.Msubs-DDR.mkv
    
    
    
    
    
    http://www.wupload.com/file/150426361/Zindagi.Na.Milegi.Dobara.2011.1CD.DVDRip.x264.Msubs-DDR.mkv
    
    
    
    
    
    http://oron.com/av9p23c3pru1/Zindagi.Na.Milegi.Dobara.2011.1CD.DVDRip.x264.Msubs-DDR.mkv





 

 

Posting Permissions

  • You may not post new threads
  • You may not post replies
  • You may not post attachments
  • You may not edit your posts
  •