Results 1 to 1 of 1
  1. #1
    dR Contributor www.desirulez.net
    Join Date
    Jan 2011
    Posts
    2,299

    T

    Smile Zabardast (2011) - 1CD - DVDRip - x264 - AAC - [EXTREME]

    Follow us on Social Media










    Movie Details
    Starring:- Aziz Naser, Mast Ali, Adnan Sajid Khan (Gullu Dada)
    Directed By :- Aziz Naser
    Written By:- Aziz Naser
    Screenplay By:- Aziz Naser
    Produced By:- Aziz Naser
    Banner:- An Aziz Naser Film
    Source:- [--EXTREME--]
    Ripper :- [--EXTREME--]

    General
    Complete name : Zabardast - [2011] - Hyderabad Movie - DVDRip - 1CD - X264 - AAC - [--EXTREME--] -1st On Net
    Format : MPEG-4
    Format profile : Base Media / Version 2
    Codec ID : mp42
    File size : 668 MiB
    Duration : 1h 38mn
    Overall bit rate : 947 Kbps
    Encoded date : UTC 2011-09-03 02:26:53
    Tagged date : UTC 2011-09-03 03:24:26

    Video
    ID : 1
    Format : MPEG-4 Visual
    Format profile : Advanced [email protected]
    Format settings, BVOP : Yes
    Format settings, QPel : No
    Format settings, GMC : No warppoints
    Format settings, Matrix : Default (H.263)
    Codec ID : 20
    Duration : 1h 38mn
    Bit rate mode : Variable
    Bit rate : 859 Kbps
    Maximum bit rate : 3 180 Kbps
    Width : 576 pixels
    Height : 272 pixels
    Display aspect ratio : 2.2:1
    Frame rate mode : Constant
    Frame rate : 29.970 fps
    Color space : YUV
    Chroma subsampling : 4:2:0
    Bit depth : 8 bits
    Scan type : Progressive
    Compression mode : Lossy
    Bits/(Pixel*Frame) : 0.183
    Stream size : 605 MiB (91%)
    Writing library : em4v 4.1.6.5
    Language : English
    Encoded date : UTC 2011-09-03 02:26:53
    Tagged date : UTC 2011-09-03 03:24:26
    Material_Duration : 5912674
    Material_StreamSize : 634831707
    Material_FrameCount : 177203

    Audio
    ID : 2
    Format : AAC
    Format/Info : Advanced Audio Codec
    Format profile : LC
    Codec ID : 40
    Duration : 1h 38mn
    Bit rate mode : Variable
    Bit rate : 80.7 Kbps
    Maximum bit rate : 153 Kbps
    Channel(s) : 2 channels
    Channel positions : Front: L R
    Sampling rate : 44.1 KHz
    Compression mode : Lossy
    Stream size : 56.9 MiB (9%)
    Language : English
    Encoded date : UTC 2011-09-03 02:26:53
    Tagged date : UTC 2011-09-03 03:24:26
    Material_Duration : 5912636
    Material_StreamSize : 59615806







    Credits to "EXTREME"



    Code:
    http://www.fileserve.com/file/WxnBJcM
    OR

    Code:
    http://www.filefactory.com/file/ce951cf


 

 

Posting Permissions

  • You may not post new threads
  • You may not post replies
  • You may not post attachments
  • You may not edit your posts
  •