Results 1 to 1 of 1
  1. #1
    Banned www.desirulez.net
    Join Date
    Jan 2010
    Posts
    2,522

    T

    Thumbs up Tridev (1989) 2CD XViD 6 Channels AC3 ESubs

    Follow us on Social Media







    Tridev (1989) 2CD XViD 6 Channels AC3 ESubs




    Format : AVI
    Format/Info : Audio Video Interleave
    File size : 1.37 GiB
    Duration : 2h 45mn
    Overall bit rate : 1 180 Kbps
    Writing application : VirtualDubMod 1.5.10.2 (build 2542/release)
    Writing library : VirtualDubMod build 2542/release

    Video
    ID : 0
    Format : MPEG-4 Visual
    Format profile : [email protected]
    Format settings, BVOP : Yes
    Format settings, QPel : Yes
    Format settings, GMC : No warppoints
    Format settings, Matrix : Default (MPEG)
    Codec ID : XVID
    Codec ID/Hint : XviD
    Duration : 2h 45mn
    Bit rate : 978 Kbps
    Width : 624 pixels
    Height : 320 pixels
    Display aspect ratio : 1.950
    Frame rate : 23.976 fps
    Resolution : 24 bits
    Colorimetry : 4:2:0
    Scan type : Progressive
    Bits/(Pixel*Frame) : 0.204
    Stream size : 1.13 GiB (83%)
    Writing library : XviD 1.2.1 (UTC 2008-12-04)

    Audio
    ID : 1
    Format : AC-3
    Format/Info : Audio Coding 3
    Codec ID : 2000
    Duration : 2h 45mn
    Bit rate mode : Constant
    Bit rate : 192 Kbps
    Channel(s) : 6 channels
    Channel positions : Front: L C R, Surround: L R, LFE
    Sampling rate : 48.0 KHz
    Stream size : 228 MiB (16%)
    Alignment : Split accross interleaves
    Interleave, duration : 42 ms (1.00 video frame)
    Interleave, preload duration : 500 ms


















    400Mb Links



    Code:
    http://www.fileserve.com/file/Rsnakdx/Tridev.1989.DVDRIP.2CD.By.Deejam.part1.rar
    http://www.fileserve.com/file/zBSPFc5/Tridev.1989.DVDRIP.2CD.By.Deejam.part2.rar
    http://www.fileserve.com/file/REkGKMn/Tridev.1989.DVDRIP.2CD.By.Deejam.part3.rar
    http://www.fileserve.com/file/YBvCjyK/Tridev.1989.DVDRIP.2CD.By.Deejam.part4.rar
    OR

    Code:
    http://www.filesonic.com/file/64895159/Tridev.1989.DVDRIP.2CD.By.Deejam.part1.rar
    http://www.filesonic.com/file/64895135/Tridev.1989.DVDRIP.2CD.By.Deejam.part2.rar
    http://www.filesonic.com/file/64895505/Tridev.1989.DVDRIP.2CD.By.Deejam.part3.rar
    http://www.filesonic.com/file/64894591/Tridev.1989.DVDRIP.2CD.By.Deejam.part4.rar
    OR

    Code:
    http://hotfile.com/dl/99657383/ff632cf/Tridev.1989.DVDRIP.2CD.By.Deejam.part1.rar.html
    http://hotfile.com/dl/99657418/9bd8bef/Tridev.1989.DVDRIP.2CD.By.Deejam.part2.rar.html
    http://hotfile.com/dl/99657466/49b75e4/Tridev.1989.DVDRIP.2CD.By.Deejam.part3.rar.html
    http://hotfile.com/dl/99656380/9bc8407/Tridev.1989.DVDRIP.2CD.By.Deejam.part4.rar.html

    OR


    Code:
    http://www.duckload.com/download/2444380/Tridev.1989.DVDRIP.2CD.By.Deejam.part1.rar
    http://www.duckload.com/download/2444377/Tridev.1989.DVDRIP.2CD.By.Deejam.part2.rar
    http://www.duckload.com/download/2444384/Tridev.1989.DVDRIP.2CD.By.Deejam.part3.rar
    http://www.duckload.com/download/2444366/Tridev.1989.DVDRIP.2CD.By.Deejam.part4.rar








 

 

Posting Permissions

  • You may not post new threads
  • You may not post replies
  • You may not post attachments
  • You may not edit your posts
  •