Results 1 to 1 of 1
  1. #1
    dR Contributor www.desirulez.net
    Join Date
    Jan 2011
    Posts
    872

    T

    Thumbs up Tees Maar Khan DVDRip. 720p. 600MB

    Follow us on Social Media








    ************************************
    *First On Net*720p In Small Size By ManDan[MAD]
    **********************************************
    Tees Maar Khan DVDRip. 720p. 600MB By ManDan[MAD]
    ****************************************************








    Release Note

    Complete name :Tees Maar Khan DVDRip. 720p. 600MB By =-ManDan=-[MAD].mp4
    Format : MPEG-4
    Format profile : Base Media / Version 2
    Codec ID : mp42
    File size : 606 MiB
    Duration : 2h 10mn
    Overall bit rate : 647 Kbps
    Encoded date : UTC 2011-02-03 17:27:25
    Tagged date : UTC 2011-02-03 18:46:47
    Writing application : HandBrake 0.9.5 2011010300

    Video
    ID : 1
    Format : AVC
    Format/Info : Advanced Video Codec
    Format profile : [email protected]
    Format settings, CABAC : Yes
    Format settings, ReFrames : 4 frames
    Format settings, GOP : N=1
    Codec ID : avc1
    Codec ID/Info : Advanced Video Coding
    Duration : 2h 10mn
    Bit rate mode : Variable
    Bit rate : 600 Kbps
    Width : 1 288 pixels
    Height : 544 pixels
    Display aspect ratio : 2.35:1
    Frame rate mode : Variable
    Frame rate : 23.976 fps
    Minimum frame rate : 23.810 fps
    Maximum frame rate : 24.390 fps
    Color space : YUV
    Chroma subsampling : 4:2:0
    Bit depth : 8 bits
    Scan type : Progressive
    Bits/(Pixel*Frame) : 0.036
    Stream size : 555 MiB (92%)
    Writing library : x264 core 112


    Audio
    ID : 2
    Format : MPEG Audio
    Format version : Version 2
    Format profile : Layer 3
    Mode : Joint stereo
    Mode extension : MS Stereo
    Codec ID : 69
    Duration : 2h 10mn
    Bit rate mode : Variable
    Bit rate : 49.7 Kbps
    Maximum bit rate : 58.9 Kbps
    Channel(s) : 2 channels
    Sampling rate : 24.0 KHz
    Compression mode : Lossy
    Stream size : 46.3 MiB (8%)
    Language : Hindi
    Encoded date : UTC 2011-02-03 17:27:25
    Tagged date : UTC 2011-02-03 18:46:45
    Uploder : Uploder Irfanabadit
    Rip By : JinImran
    Screens











    Imbd
    Code:
    http://www.imdb.com/title/tt1572311/



    Single Links
    Code:
    http://www.fileserve.com/file/AhA6ZHW/Tees.Maar.Khan.DVDRip.720p.600MB.By.ManDan.[MAD].mp4
    OR
    http://www.filesonic.com/file/76074249/Tees.Maar.Khan.DVDRip.720p.600MB.By.ManDan.[MAD].mp4
    OR
    400 MB links

    FileServe
    Code:
    http://www.fileserve.com/file/hmbXNah/Tees.Maar.Khan.DVDRip.720p.600MB.By.ManDan.MAD.part1.rar
    http://www.fileserve.com/file/YZU4PX7/Tees.Maar.Khan.DVDRip.720p.600MB.By.ManDan.MAD.part2.rar
    OR
    Hotfile
    Code:
    http://hotfile.com/dl/102401879/8a08ce1/Tees.Maar.Khan.DVDRip.720p.600MB.By.ManDan.MAD.part1.rar.html
    http://hotfile.com/dl/102401469/88c891e/Tees.Maar.Khan.DVDRip.720p.600MB.By.ManDan.MAD.part2.rar.html
    OR
    FileSonic
    Code:
    http://www.filesonic.com/file/76074239/Tees.Maar.Khan.DVDRip.720p.600MB.By.ManDan.MAD.part1.rar
    http://www.filesonic.com/file/76074631/Tees.Maar.Khan.DVDRip.720p.600MB.By.ManDan.MAD.part2.rar
    Use winrar to extract the above files


    This Upload Cost you A Simple THANKS: "So Don't Forget to Say THANKS"

    Guys Don't Just Download. I have Spent alot of time to Upload and Maintain all the links... Which takes Alot of Time....
    Please Say Thanks If you like the Effort

    |-----------------------------------|
    Thanks to Uploder Irfanabadit
    |-----------------------------------|

 

 

Posting Permissions

  • You may not post new threads
  • You may not post replies
  • You may not post attachments
  • You may not edit your posts
  •