Results 1 to 1 of 1
  1. #1
    Banned www.desirulez.net
    Join Date
    Jan 2010
    Posts
    2,522

    T

    Thumbs up Tees Maar Khan DVDRip. 720p. 600MB

    Follow us on Social Media







    Tees Maar Khan DVDRip. 720p. 600MB






    Cast :

    Akshay Kumar, Katrina Kaif, Akshaye Khanna

    Complete name :Tees Maar Khan DVDRip. 720p. 600MB
    Format : MPEG-4
    Format profile : Base Media / Version 2
    Codec ID : mp42
    File size : 606 MiB
    Duration : 2h 10mn
    Overall bit rate : 647 Kbps
    Encoded date : UTC 2011-02-03 17:27:25
    Tagged date : UTC 2011-02-03 18:46:47
    Writing application : HandBrake 0.9.5 2011010300

    Video
    ID : 1
    Format : AVC
    Format/Info : Advanced Video Codec
    Format profile : [email protected]
    Format settings, CABAC : Yes
    Format settings, ReFrames : 4 frames
    Format settings, GOP : N=1
    Codec ID : avc1
    Codec ID/Info : Advanced Video Coding
    Duration : 2h 10mn
    Bit rate mode : Variable
    Bit rate : 600 Kbps
    Width : 1 288 pixels
    Height : 544 pixels
    Display aspect ratio : 2.35:1
    Frame rate mode : Variable
    Frame rate : 23.976 fps
    Minimum frame rate : 23.810 fps
    Maximum frame rate : 24.390 fps
    Color space : YUV
    Chroma subsampling : 4:2:0
    Bit depth : 8 bits
    Scan type : Progressive
    Bits/(Pixel*Frame) : 0.036
    Stream size : 555 MiB (92%)
    Writing library : x264 core 112
    Tagged date : UTC 2011-02-03 18:46:47
    Color primaries : BT.709-5, BT.1361, IEC 61966-2-4, SMPTE RP177
    Transfer characteristics : BT.709-5, BT.1361
    Matrix coefficients : BT.709-5, BT.1361, IEC 61966-2-4 709, SMPTE RP177

    Audio
    ID : 2
    Format : MPEG Audio
    Format version : Version 2
    Format profile : Layer 3
    Mode : Joint stereo
    Mode extension : MS Stereo
    Codec ID : 69
    Duration : 2h 10mn
    Bit rate mode : Variable
    Bit rate : 49.7 Kbps
    Maximum bit rate : 58.9 Kbps
    Channel(s) : 2 channels
    Sampling rate : 24.0 KHz
    Compression mode : Lossy
    Stream size : 46.3 MiB (8%)
    Language : Hindi
    Encoded date : UTC 2011-02-03 17:27:25
    Tagged date : UTC 2011-02-03 18:46:45












    Single Link 700MB




    Code:
    http://www.fileserve.com/file/8dcDDrS/Tees.Maar.Khan.DVDRip.720p.600MB.By.Deejam.mp4

    Code:
    http://www.filesonic.com/file/74581839/Tees.Maar.Khan.DVDRip.720p.600MB.By.Deejam.mp4


    Code:
    http://www.duckload.com/download/2648851/Tees.Maar.Khan.DVDRip.720p.600MB.By.Deejam.mp4





    400MB Links



    Code:
    http://www.fileserve.com/file/bfnrQUW/Tees.Maar.Khan.DVDRip.720p.600MB.By.Deejam.part1.rar
    http://www.fileserve.com/file/xRyUB6k/Tees.Maar.Khan.DVDRip.720p.600MB.By.Deejam.part2.rar

    Code:
    http://www.filesonic.com/file/74581091/Tees.Maar.Khan.DVDRip.720p.600MB.By.Deejam.part1.rar
    http://www.filesonic.com/file/74581749/Tees.Maar.Khan.DVDRip.720p.600MB.By.Deejam.part2.rar


    Code:
    http://hotfile.com/dl/101712561/5567428/Tees.Maar.Khan.DVDRip.720p.600MB.By.Deejam.part1.rar.html
    http://hotfile.com/dl/101712453/a46b7ea/Tees.Maar.Khan.DVDRip.720p.600MB.By.Deejam.part2.rar.html









 

 

Posting Permissions

  • You may not post new threads
  • You may not post replies
  • You may not post attachments
  • You may not edit your posts
  •