Results 1 to 1 of 1
  1. #1
    dR Rockers www.desirulez.net
    Join Date
    Aug 2011
    Posts
    5,859

    T

    Default Shola Aur Shabnam (1992) - 1.37GB - 1/3 - DvDRip - XviD - NtN

    Follow us on Social Media








    Plot:
    The spoiled and arrogant brother, Bali, of notorious gangster, Kali Baba, enlists in the National Cadet Corps, and wants to have his way with his fellow-students and trainer, Inder Mohan Lahti, with comical results. When he meets Divya Thapa for the first time, he is smitten by her, and wants to marry her by hook or by crook. But Divya is in love with Karan, and both plan to marry each other. Circumstances act against them, and they flee together, with Kali Baba's men, and Divya's Police Commissioner dad, Yashpal Thapa, in hot pursuit, to an unknown destination, surrounded by a web of lies, deception, and no known resource to assist them.

    Screenshots:















    Quote:
    Media info:
    Code:
    General
    Complete name                    : Shola aur shabnam [1992].avi
    Format                           : AVI
    Format/Info                      : Audio Video Interleave
    File size                        : 1.37 GiB
    Duration                         : 2h 47mn
    Overall bit rate                 : 1 167 Kbps
    Writing application              : VirtualDubMod 1.5.4.1 (build 2178/release)
    Writing library                  : VirtualDubMod build 2178/release
    
    Video
    ID                               : 0
    Format                           : MPEG-4 Visual
    Format profile                   : Advanced [email protected]
    Format settings, BVOP            : Yes
    Format settings, QPel            : No
    Format settings, GMC             : No warppoints
    Format settings, Matrix          : Custom
    Codec ID                         : XVID
    Codec ID/Hint                    : XviD
    Duration                         : 2h 47mn
    Bit rate                         : 711 Kbps
    Width                            : 448 pixels
    Height                           : 240 pixels
    Display aspect ratio             : 1.867
    Frame rate                       : 29.970 fps
    Color space                      : YUV
    Chroma subsampling               : 4:2:0
    Bit depth                        : 8 bits
    Scan type                        : Progressive
    Compression mode                 : Lossy
    Bits/(Pixel*Frame)               : 0.221
    Stream size                      : 853 MiB (61%)
    Writing library                  : XviD 1.1.2 (UTC 2006-11-01)
    
    Audio
    ID                               : 1
    Format                           : AC-3
    Format/Info                      : Audio Coding 3
    Mode extension                   : CM (complete main)
    Codec ID                         : 2000
    Duration                         : 2h 47mn
    Bit rate mode                    : Constant
    Bit rate                         : 448 Kbps
    Channel(s)                       : 6 channels
    Channel positions                : Front: L C R, Side: L R, LFE
    Sampling rate                    : 48.0 KHz
    Bit depth                        : 16 bits
    Compression mode                 : Lossy
    Stream size                      : 538 MiB (38%)
    Alignment                        : Aligned on interleaves
    Interleave, duration             : 96 ms (2.88 video frames)
    Interleave, preload duration     : 96 ms
    Language                         : Hindi

    SINGLE LINK

    Code:
    http://www.fileserve.com/file/FgZYNSF/Shola_aur_shabnam_[1992].avi
    Code:
    http://www.filesonic.com/file/1961319861/Shola aur shabnam [1992].avi
    Code:
    http://www.wupload.com/file/166173255/Shola aur shabnam [1992].avi


    450MB LINKS

    Code:
    http://www.fileserve.com/file/ZeCG5ua/Shola_aur_shabnam_[1992].avi.001
    http://www.fileserve.com/file/Xj7nxbc/Shola_aur_shabnam_[1992].avi.002
    http://www.fileserve.com/file/5AKJJCy/Shola_aur_shabnam_[1992].avi.003
    http://www.fileserve.com/file/EhvShtV/Shola_aur_shabnam_[1992].avi.004
    
    
    http://www.filesonic.com/file/1961263941/Shola aur shabnam [1992].avi.001
    http://www.filesonic.com/file/1961258091/Shola aur shabnam [1992].avi.002
    http://www.filesonic.com/file/1961263811/Shola aur shabnam [1992].avi.003
    http://www.filesonic.com/file/1961215831/Shola aur shabnam [1992].avi.004
    
    
    http://www.wupload.com/file/166161741/Shola aur shabnam [1992].avi.001
    http://www.wupload.com/file/166161772/Shola aur shabnam [1992].avi.002
    http://www.wupload.com/file/166163873/Shola aur shabnam [1992].avi.003
    http://www.wupload.com/file/166154609/Shola aur shabnam [1992].avi.004




 

 

Posting Permissions

  • You may not post new threads
  • You may not post replies
  • You may not post attachments
  • You may not edit your posts
  •