Results 1 to 1 of 1
  1. #1
    dR Rockers www.desirulez.net
    Join Date
    Aug 2011
    Posts
    5,859

    T

    Default Samay When Time Strikes (2003) - 900MB - 720p - 1/5 - DvDRip - X264 - Mp3 - (TDBB)

    Follow us on Social Media









    ***** PRESENTS *****






    ==

    Samay When Time Strikes (2003) 720p 1/5 DvDRip X264 Mp3 Rip By Pakistani Bacha (TDBB)
    ==



    Code:
    General Unique ID : 177200453909052934376141851376436005102 (0x854F90E79ECCF41FBA6E5EC719FE48EE) Complete name : Samay When Time Strikes (2003) 720p 1/5 DvDRip X264 Mp3 Rip By Pakistani Bacha (TDBB) Source : DVD-9 By Pakistani Bacha (TDBB) Format : Matroska Format version : Version 2 File size : 894 MiB Duration : 2h 15mn Overall bit rate : 924 Kbps Encoded date : UTC 2011-09-14 10:02:19 Writing application : mkvmerge v4.9.1 ('Ich will') built on Jul 11 2011 23:53:15 Writing library : libebml v1.2.1 + libmatroska v1.1.1 Ripper : Pakistani Bacha Video ID : 1 Format : AVC Format/Info : Advanced Video Codec Format profile : [email protected] Format settings, CABAC : Yes Format settings, ReFrames : 4 frames Codec ID : V_MPEG4/ISO/AVC Duration : 2h 15mn Bit rate : 874 Kbps Width : 1 280 pixels Height : 544 pixels Display aspect ratio : 2.35:1 Frame rate : 23.976 fps Color space : YUV Chroma subsampling : 4:2:0 Bit depth : 8 bits Scan type : Progressive Bits/(Pixel*Frame) : 0.052 Stream size : 830 MiB (93%) Writing library : x264 core 116 r2074 2641b9e Language : Hindi Audio ID : 2 Format : MPEG Audio Format version : Version 2 Format profile : Layer 3 Mode : Joint stereo Mode extension : MS Stereo Codec ID : A_MPEG/L3 Codec ID/Hint : MP3 Duration : 2h 15mn Bit rate mode : Constant Bit rate : 48.0 Kbps Channel(s) : 2 channels Sampling rate : 22.05 KHz Compression mode : Lossy Stream size : 46.4 MiB (5%) Language : Hindi


    IMDB :
    Code:
    http://www.imdb.com/title/tt0384491/































    SAMPLE



    Note all user :

    I have tested this on
    the and media player classic and works fine.
    We hope you enjoy this release.
    Please seed, and we thank you for your support.



    Add Reps If You Like My Post

    Code:
    http://www.fileserve.com/file/s3Hx2Kp/Samay - When Time Strikes (2003) - 720p - DvDRip  - X264 - Mp3 - Rip - By Pakistani Bacha (TDBB).mkv
    Code:
    http://www.filesonic.com/file/2622412731/Samay - When Time Strikes (2003) - 720p - DvDRip  - X264 - Mp3 - Rip - By Pakistani Bacha (TDBB).mkv

    Code:
    http://www.wupload.com/file/452382281/Samay - When Time Strikes (2003) - 720p - DvDRip  - X264 - Mp3 - Rip - By Pakistani Bacha (TDBB).mkv


 

 

Posting Permissions

  • You may not post new threads
  • You may not post replies
  • You may not post attachments
  • You may not edit your posts
  •