Results 1 to 1 of 1
  1. #1
    dR Rockers www.desirulez.net
    Join Date
    Aug 2011
    Posts
    5,859

    T

    Cool Ra One (2011) - 2.50GB - 3D - DVDRip - Eng Subs - Team TMT

    Follow us on Social Media







    [TMT 3D]Ra One (2011) Eng Subs








    Code:
    Format : AVI
    Format/Info : Audio Video Interleave
    Format profile : OpenDML
    File size : 2.50 GiB
    Duration : 2h 35mn
    Overall bit rate : 2 296 Kbps

    Video
    ID : 0
    Format : AVC
    Format/Info : Advanced Video Codec
    Format profile : [email protected]
    Format settings, CABAC : No
    Format settings, ReFrames : 1 frame
    Codec ID : H264
    Duration : 2h 35mn
    Bit rate : 2 025 Kbps
    Width : 640 pixels
    Height : 480 pixels
    Display aspect ratio : 4:3
    Frame rate : 30.000 fps
    Color space : YUV
    Chroma subsampling : 4:2:0
    Bit depth : 8 bits
    Scan type : Progressive
    Bits/(Pixel*Frame) : 0.220
    Stream size : 2.21 GiB (88%)

    Audio
    ID : 1
    Format : AC-3
    Format/Info : Audio Coding 3
    Mode extension : CM (complete main)
    Codec ID : 2000
    Duration : 2h 35mn
    Bit rate mode : Constant
    Bit rate : 256 Kbps
    Channel(s) : 6 channels
    Channel positions : Front: L C R, Side: L R, LFE
    Sampling rate : 48.0 KHz
    Bit depth : 16 bits
    Compression mode : Lossy
    Stream size : 286 MiB (11%)
    Alignment : Aligned on interleaves
    Interleave, duration : 32 ms (0.96 video frame)

    Ripper: [email][email protected]team TMT - Share with Proper Credits


    Note: 100% No WaterMark



















    Note :

    1. Use Anaglyphic (red-cyan) 3d glasses.

    2. Watch from a distance about 3 yards from screen.







    SINGLE LINK
    Code:
    http://www.filesonic.com/file/PLnAJCc/[TMT 3D]Ra One (2011)  Eng Subs ~ Team TMT.avi










    Code:
     
    http://www.filejungle.com/f/Cf5wH7/[TMT 3D]Ra One (2011) Eng Subs ~ Team TMT.avi









    450MB LINKS






    Code:
    http://www.filesonic.com/file/tPFD8R2/[TMT 3D]Ra One (2011)  Eng Subs ~ Team TMT.avi.001
    http://www.filesonic.com/file/S95UNe5/[TMT 3D]Ra One (2011)  Eng Subs ~ Team TMT.avi.002
    http://www.filesonic.com/file/nhb7qXz/[TMT 3D]Ra One (2011)  Eng Subs ~ Team TMT.avi.003
    http://www.filesonic.com/file/WJUQC0F/[TMT 3D]Ra One (2011)  Eng Subs ~ Team TMT.avi.004
    http://www.filesonic.com/file/gfol0z6/[TMT 3D]Ra One (2011)  Eng Subs ~ Team TMT.avi.005
    http://www.filesonic.com/file/zQLd6nW/[TMT 3D]Ra One (2011)  Eng Subs ~ Team TMT.avi.006
    
    
    
    
    
    http://www.fileserve.com/file/bmda5Pt/[TMT 3D]Ra One (2011)  Eng Subs ~ Team TMT.avi.001
    http://www.fileserve.com/file/3MARExH/[TMT 3D]Ra One (2011)  Eng Subs ~ Team TMT.avi.002
    http://www.fileserve.com/file/g8A4Vy9/[TMT 3D]Ra One (2011)  Eng Subs ~ Team TMT.avi.003
    http://www.fileserve.com/file/QdRBBXP/[TMT 3D]Ra One (2011)  Eng Subs ~ Team TMT.avi.004
    http://www.fileserve.com/file/77Gx8HB/[TMT 3D]Ra One (2011)  Eng Subs ~ Team TMT.avi.005
    http://www.fileserve.com/file/vwdfSmC/[TMT 3D]Ra One (2011)  Eng Subs ~ Team TMT.avi.006
    
    
    
    
    http://www.filejungle.com/f/6jQ2UA/[TMT 3D]Ra One (2011)  Eng Subs ~ Team TMT.avi.001
    http://www.filejungle.com/f/rqv8nS/[TMT 3D]Ra One (2011)  Eng Subs ~ Team TMT.avi.002
    http://www.filejungle.com/f/xpu9hh/[TMT 3D]Ra One (2011)  Eng Subs ~ Team TMT.avi.003
    http://www.filejungle.com/f/ZFEgBQ/[TMT 3D]Ra One (2011)  Eng Subs ~ Team TMT.avi.004
    http://www.filejungle.com/f/gX2Y3z/[TMT 3D]Ra One (2011)  Eng Subs ~ Team TMT.avi.005
    http://www.filejungle.com/f/vnTrEq/[TMT 3D]Ra One (2011)  Eng Subs ~ Team TMT.avi.006


 

 

Posting Permissions

  • You may not post new threads
  • You may not post replies
  • You may not post attachments
  • You may not edit your posts
  •