Results 1 to 1 of 1
  1. #1
    Hot Member www.desirulez.net
    Join Date
    Feb 2011
    Posts
    1,189

    T

    Default Qayamat Se Qayamat Tak (1988) - 1CD DVDRip - x264 - 700MB - Team DUS - 1 & 2 Links

    Follow us on Social Media







    Qayamat Se Qayamat Tak (1988)
    1CD DVDRip - x264 - 700MB - Team DUS





    Full caps










    Code:
    Ripper                           : snaink @ Team DUS
    Source                           : DVD9 @ DUS Warehouse
    
    General
    =======
    Format                           : Matroska
    File size                        : 698 MiB
    Duration                         : 2h 38mn
    Overall bit rate                 : 616 Kbps
    
    Video
    =====
    Format                           : AVC
    Format/Info                      : Advanced Video Codec
    Format profile                   : [email protected]
    Format settings, CABAC           : Yes
    Format settings, ReFrames        : 4 frames
    Muxing mode                      : Container [email protected]
    Codec ID                         : V_MPEG4/ISO/AVC
    Duration                         : 2h 38mn
    Bit rate                         : 518 Kbps
    Width                            : 688 pixels
    Height                           : 272 pixels
    Display aspect ratio             : 2.529
    Frame rate                       : 23.976 fps
    Color space                      : YUV
    Chroma subsampling               : 4:2:0
    Bit depth                        : 8 bits
    Scan type                        : Progressive
    Bits/(Pixel*Frame)               : 0.115
    Stream size                      : 576 MiB (82%)
    Writing library                  : x264 core 98 r1649 c54c47d
    
    Audio
    =====
    Format                           : AC-3
    Format/Info                      : Audio Coding 3
    Mode extension                   : CM (complete main)
    Codec ID                         : A_AC3
    Duration                         : 2h 38mn
    Bit rate mode                    : Constant
    Bit rate                         : 96.0 Kbps
    Channel(s)                       : 2 channels
    Channel positions                : Front: L R
    Sampling rate                    : 48.0 KHz
    Video delay                      : 10s 443ms
    Stream size                      : 109 MiB (16%)
    
    Language                         : Hindi
    Subtitles                        : English Muxed
    
    imdb                             : http://www.imdb.com/title/tt0095936/
    ALL CREDITS Goes To snaink @ Team DUS (Thanks)

    Single Link (Size: 698.41MB)

    Code:
    http://www.fileserve.com/file/Xg53uvY/Qayamat_Se_Qayamat_Tak1988_-_1CD-DVDRip-x264-Team-DUS-Up-by-BD-X_Man.mkv
    Splited Files - (Size: 399MB + 299.41MB)

    Code:
    http://www.filesonic.com/file/76876424/Qayamat_Se_Qayamat_Tak1988_-_1CD-DVDRip-x264-Team-DUS-Up-by-BD-X_Man.mkv.001
    http://www.filesonic.com/file/76876376/Qayamat_Se_Qayamat_Tak1988_-_1CD-DVDRip-x264-Team-DUS-Up-by-BD-X_Man.mkv.002

 

 

Posting Permissions

  • You may not post new threads
  • You may not post replies
  • You may not post attachments
  • You may not edit your posts
  •