Results 1 to 1 of 1
  1. #1
    dR Rockers www.desirulez.net
    Join Date
    Aug 2011
    Posts
    5,859

    T

    Default Pran jaaye par shaan na jaaye (2003) - 1.26GB - 1/3 - DVDRIP - XVID - 6ch - AC3 - TDT

    Follow us on Social Media











    Rip Info
    Code:
    Source : DRs (faroqqbhai wali)
    IMDB :
    Code:
    www.imdb.com/title/tt0330783/
    Sample 1 :
    Code:
    http://www.sendspace.com/file/bavjzd
    Sample 2 :
    Code:
    http://www.sendspace.com/file/a7p9k5
    Complete name : [~TDT~]pjpsnj (2003) 1.3 DVDRIP XVID -=[Namele$$]=-.avi
    Format : AVI
    Format/Info : Audio Video Interleave
    File size : 1.26 GiB
    Duration : 2h 15mn
    Overall bit rate : 1 327 Kbps

    Video
    ID : 0
    Format : MPEG-4 Visual
    Format profile : Advanced [email protected]
    Format settings, BVOP : 1
    Format settings, QPel : No
    Format settings, GMC : No warppoints
    Format settings, Matrix : Default (H.263)
    Muxing mode : Packed bitstream
    Codec ID : XVID
    Codec ID/Hint : XviD
    Duration : 2h 15mn
    Bit rate : 1 000 Kbps
    Width : 640 pixels
    Height : 272 pixels
    Display aspect ratio : 2.35:1
    Frame rate : 23.976 fps
    Color space : YUV
    Chroma subsampling : 4:2:0
    Bit depth : 8 bits
    Scan type : Progressive
    Compression mode : Lossy
    Bits/(Pixel*Frame) : 0.240
    Stream size : 970 MiB (75%)
    Writing library : XviD 1.2.1 (UTC 2008-12-04)

    Audio
    ID : 1
    Format : AC-3
    Format/Info : Audio Coding 3
    Mode extension : CM (complete main)
    Codec ID : 2000
    Duration : 2h 15mn
    Bit rate mode : Constant
    Bit rate : 320 Kbps
    Channel(s) : 6 channels
    Channel positions : Front: L C R, Side: L R, LFE
    Sampling rate : 48.0 KHz
    Bit depth : 16 bits
    Compression mode : Lossy
    Stream size : 310 MiB (24%)
    Alignment : Aligned on interleaves
    Interleave, duration : 64 ms (1.53 video frames)
    Interleave, preload duration : 192 ms
    Title : VTS_02_1 T80 3_2ch 384Kbps DELAY 0ms_new
    Screenshots












    All Credits to The Dream Team


    SINGLE LINK

    Code:
    http://www.filesonic.com/file/4020204225/[~TDT~]pjpsnj (2003) 1.3 DVDRIP XVID -=[Namele$$]=-.avi

    Code:
    http://www.fileserve.com/file/ney3XtH/[~TDT~]pjpsnj (2003) 1.3 DVDRIP XVID -=[Namele$$]=-.avi
    Code:
    http://www.wupload.com/file/2586761822/[~TDT~]pjpsnj (2003) 1.3 DVDRIP XVID -=[Namele$$]=-.avi


    450MB LINKS

    Code:
    http://www.fileserve.com/file/XWtrny4/[~TDT~]pjpsnj (2003) 1.3 DVDRIP XVID -=[Namele$$]=-.avi.001
    http://www.fileserve.com/file/z2xVmfS/[~TDT~]pjpsnj (2003) 1.3 DVDRIP XVID -=[Namele$$]=-.avi.002
    http://www.fileserve.com/file/DqWRX4u/[~TDT~]pjpsnj (2003) 1.3 DVDRIP XVID -=[Namele$$]=-.avi.003
    
    
    http://www.filesonic.com/file/4020315885/[~TDT~]pjpsnj (2003) 1.3 DVDRIP XVID -=[Namele$$]=-.avi.001
    http://www.filesonic.com/file/4020315945/[~TDT~]pjpsnj (2003) 1.3 DVDRIP XVID -=[Namele$$]=-.avi.002
    http://www.filesonic.com/file/4020315965/[~TDT~]pjpsnj (2003) 1.3 DVDRIP XVID -=[Namele$$]=-.avi.003
    
    
    
    http://www.wupload.com/file/2586586432/[~TDT~]pjpsnj (2003) 1.3 DVDRIP XVID -=[Namele$$]=-.avi.001
    http://www.wupload.com/file/2586586422/[~TDT~]pjpsnj (2003) 1.3 DVDRIP XVID -=[Namele$$]=-.avi.002
    http://www.wupload.com/file/2586586487/[~TDT~]pjpsnj (2003) 1.3 DVDRIP XVID -=[Namele$$]=-.avi.003

 

 

Posting Permissions

  • You may not post new threads
  • You may not post replies
  • You may not post attachments
  • You may not edit your posts
  •