Results 1 to 1 of 1
  1. #1
    dR Rockers www.desirulez.net
    Join Date
    Aug 2011
    Posts
    5,859

    T

    Cool Paanch Qaidi (1981) DvD - 1GB - Rip - Xvid - Esub - 6 channels { ExD XMR }

    Follow us on Social Media







    Paanch Qaidi (1981)










    Ripper : Rahul
    Complete name : Paanch Qaidi (1981)
    Format : AVI
    Format/Info : Audio Video Interleave
    File size : 1.06 GiB
    Duration : 2h 15mn
    Overall bit rate : 1 118 Kbps
    Writing application : VirtualDubMod 1.5.10.3 |


    Video
    ID : 0
    Format : MPEG-4 Visual
    Format profile : Advanced [email protected]
    Format settings, BVOP : 2
    Format settings, QPel : Yes
    Format settings, GMC : No warppoints
    Format settings, Matrix : Default (MPEG)
    Codec ID : XVID
    Codec ID/Hint : XviD
    Duration : 2h 15mn
    Bit rate : 981 Kbps
    Width : 656 pixels
    Height : 480 pixels
    Display aspect ratio : 4:3
    Frame rate : 23.976 fps
    Color space : YUV
    Chroma subsampling : 4:2:0
    Bit depth : 8 bits
    Scan type : Progressive
    Compression mode : Lossy
    Bits/(Pixel*Frame) : 0.130
    Stream size : 954 MiB (88%)


    Audio
    ID : 1
    Format : AC-3
    Format/Info : Audio Coding 3
    Mode extension : CM (complete main)
    Codec ID : 2000
    Duration : 2h 15mn
    Bit rate mode : Constant
    Bit rate : 128 Kbps
    Channel(s) : 6 channels
    Channel positions : Front: L C R, Side: L R, LFE
    Sampling rate : 48.0 KHz
    Bit depth : 16 bits
    Compression mode : Lossy
    Stream size : 124 MiB (11%)
    Alignment : Split accross interleaves
    Interleave, duration : 42 ms (1.00 video frame)
    Interleave, preload duration : 500 ms


    Cast
















    Code:
    http://www.filesonic.com/file/CerRoqv/Paanch Qaidi (1981) DvD - 1GB - Rip - Xvid - Esub - 6 channels { ExD XMR }.avi
    http://www.filesonic.com/file/EBvpYCn/Paanch Qaidi (1981) DvD - 1GB - Rip - Xvid - Esub - 6 channels { ExD XMR }.idx
    http://www.filesonic.com/file/w6tkYbN/Paanch Qaidi (1981) DvD - 1GB - Rip - Xvid - Esub - 6 channels { ExD XMR }.sub
    Code:
    http://www.fileserve.com/file/YujYb5q/Paanch Qaidi (1981) DvD - 1GB - Rip - Xvid - Esub - 6 channels { ExD XMR }.avi
    http://www.fileserve.com/file/GKmj7c8/Paanch Qaidi (1981) DvD - 1GB - Rip - Xvid - Esub - 6 channels { ExD XMR }.idx
    http://www.fileserve.com/file/GRKqQnn/Paanch Qaidi (1981) DvD - 1GB - Rip - Xvid - Esub - 6 channels { ExD XMR }.sub
    Code:
    http://www.filejungle.com/f/aWEqBX/Paanch Qaidi (1981) DvD - 1GB - Rip - Xvid - Esub - 6 channels { ExD XMR }.avi
    http://www.filejungle.com/f/KDMyDJ/Paanch Qaidi (1981) DvD - 1GB - Rip - Xvid - Esub - 6 channels { ExD XMR }.idx
    http://www.filejungle.com/f/dgya9G/Paanch Qaidi (1981) DvD - 1GB - Rip - Xvid - Esub - 6 channels { ExD XMR }.sub

 

 

Posting Permissions

  • You may not post new threads
  • You may not post replies
  • You may not post attachments
  • You may not edit your posts
  •