Results 1 to 1 of 1
  1. #1
    Super Member www.desirulez.net
    Join Date
    May 2011
    Posts
    240

    T

    Red face Muskurahat [1992] - x264 - AAC - 1/5 DVDRip - [ MDG ]

    Follow us on Social Media














    Cast -

    Jay Mehta, Revathi, Annu Kapoor, Jagdeep, Mahesh Anand, Anju Mehendru, Anil Dhawan and Amrish Puri.

    Code:
    General
    Name                             : Muskurahat 
    Format                           : MPEG-4
    Format profile                   : Base Media
    Codec ID                         : isom
    File size                        : 893 MiB
    Duration                         : 3h 3mn
    Overall bit rate                 : 681 Kbps
    
    
    Video
    ID                               : 1
    Format                           : AVC
    Format/Info                      : Advanced Video Codec
    Format profile                   : [email protected]
    Format settings, CABAC           : Yes
    Format settings, ReFrames        : 5 frames
    Codec ID                         : avc1
    Codec ID/Info                    : Advanced Video Coding
    Duration                         : 3h 3mn
    Bit rate mode                    : Variable
    Bit rate                         : 614 Kbps
    Maximum bit rate                 : 2 193 Kbps
    Width                            : 608 pixels
    Height                           : 304 pixels
    Display aspect ratio             : 2.000
    Frame rate mode                  : Constant
    Frame rate                       : 23.976 fps
    Color space                      : YUV
    Chroma subsampling               : 4:2:0
    Bit depth                        : 8 bits
    Scan type                        : Progressive
    Bits/(Pixel*Frame)               : 0.139
    Stream size                      : 805 MiB (90%)
    
    
    Audio
    ID                               : 2
    Format                           : AAC
    Format/Info                      : Advanced Audio Codec
    Format version                   : Version 4
    Format profile                   : LC
    Format settings, SBR             : Yes
    Format settings, PS              : No
    Codec ID                         : 40
    Duration                         : 3h 3mn
    Bit rate mode                    : Variable
    Bit rate                         : 64.0 Kbps
    Maximum bit rate                 : 69.3 Kbps
    Channel(s)                       : 2 channels
    Channel positions                : Front: L R
    Sampling rate                    : 44.1 KHz
    Stream size                      : 83.9 MiB (9%)
    
    
    Source                           : DVD 9 
    Ripper                           : Nordmariner
    IMDB

    Plot
    Gopichand Verma is a retired Judge of the Supreme Court of India. He re-locates to scenic Ooty and decides to live there in a palatial home. He has a cook/servant in Badriprasad Chaurasia. When Chaurasia wins a lottery, he quits, and Verma hires a woman by the name of Nandini in his place. He soon finds out that there is a mystery behind Nandini and her presence in his house, apart from the fact that she is mentally imbalanced. When he probes further, he finds that she is claiming to be his illegitimate daughter. He does accept her and decides to let her live there, but his wife, his son, his sister, his son-in-law, and daughter have other plans - for they have hired notorious hit-man Samar Khan to abduct and kill Nandini at any cost. Is Nandini really Verma's daughter? Why would the Verma family want her dead?

    Sample



    [DOWN]
    Code:
    http://www.wupload.com/file/39896351
    [/DOWN]
    You are Allowed to Share My Post and My Links anywhere you want 2

 

 

Posting Permissions

  • You may not post new threads
  • You may not post replies
  • You may not post attachments
  • You may not edit your posts
  •