Results 1 to 1 of 1
  1. #1
    Senior Member www.desirulez.net
    Join Date
    Dec 2011
    Posts
    117

    T

    Exclamation Mere Yaar Ki Shaadi Hai DVDrip XVID MP3 2cd

    Follow us on Social Media







    General cd1 cd2
    Format : AVI : AVI
    Format/Info : Audio Video Interleave : Audio Video Interleave
    File size : 700 MiB : 699 MiB
    Duration : 1h 15mn : 1h 24mn
    Overall bit rate : 1 304 Kbps : 1 160 Kbps

    Video
    Format : MPEG-4 Visual : MPEG-4 Visual
    Format settings, Matrix : Default (H.263) : Default (H.263)
    Muxing mode : Packed bitstream : Packed bitstream
    Codec ID : XVID : XVID
    Duration : 1h 15mn : 1h 24mn
    Bit rate : 1 162 Kbps : 1 022 Kbps
    Width : 640 pixels : 640 pixels
    Height : 288 pixels : 288 pixels
    Stream size : 624 MiB (89%) : 616 MiB (88%)

    Audio
    Codec ID/Hint : MP3 : MP3
    Duration : 1h 15mn : 1h 24mn
    Bit rate : 128 Kbps : 128 Kbps
    Channel(s) : 2 channels : 2 channels
    Stream size : 69.4 MiB (10%) : 76.0 MiB (11%)


    Filefactory
    Code:
    http://www.filefactory.com/file/c2b7d28/n/Mere_Yaar_Ki_Shaadi_Hai_cd1_By.PlaBon.avi
    
    http://www.filefactory.com/file/c2c333f/n/Mere_Yaar_Ki_Shaadi_Hai_cd2_By.PlaBon.avi

 

 

Posting Permissions

  • You may not post new threads
  • You may not post replies
  • You may not post attachments
  • You may not edit your posts
  •