Results 1 to 1 of 1
  1. #1

    Smile Kal Ho Na Ho (2003)1/6 BD Rip - 480p - XVid - Singe Link

    Follow us on Social Media









    Kal Ho Na Ho (2003)1/6 BD Rip - 480p - XVid - Singe Link





    General
    Complete name : KHNH - BDRip.mp4
    Format : MPEG-4
    Format profile : Base Media
    Codec ID : isom
    File size : 1.63 GiB
    Duration : 3h 7mn
    Overall bit rate : 1 243 Kbps

    Video
    ID : 1
    Format : MPEG-4 Visual
    Format profile : [email protected]
    Format settings, BVOP : No
    Format settings, QPel : No
    Format settings, GMC : No warppoints
    Format settings, Matrix : Default (H.263)
    Codec ID : 20
    Duration : 3h 7mn
    Bit rate mode : Variable
    Bit rate : 1 174 Kbps
    Width : 720 pixels
    Height : 304 pixels
    Display aspect ratio : 2.35:1
    Frame rate mode : Constant
    Frame rate : 24.000 fps
    Color space : YUV
    Chroma subsampling : 4:2:0
    Bit depth : 8 bits
    Scan type : Progressive
    Bits/(Pixel*Frame) : 0.224
    Stream size : 1.54 GiB (95%)

    Audio
    ID : 2
    Format : AAC
    Format/Info : Advanced Audio Codec
    Format version : Version 4
    Format profile : LC
    Format settings, SBR : No
    Codec ID : 40
    Duration : 3h 7mn
    Bit rate mode : Variable
    Bit rate : 64.0 Kbps
    Channel(s) : 2 channels
    Channel positions : Front: L R
    Sampling rate : 44.1 KHz
    Stream size : 85.8 MiB (5%)









    DOWNLOAD FROM DUCKLOAD::
    Code:
    http://www.duckload.com/dl/JshP2

    CREDITS TO Original Releaser


 

 

Posting Permissions

  • You may not post new threads
  • You may not post replies
  • You may not post attachments
  • You may not edit your posts
  •