Results 1 to 1 of 1
  1. #1
    dR Rockers www.desirulez.net
    Join Date
    Aug 2011
    Posts
    5,859

    T

    Default Kabhi Khushi Kabhi Gham (2001) - 1.45GB - 1/3 - DVDRip - x264 - AC3 - [DUS]

    Follow us on Social Media










    Code:
    Code:
         Movie Name..........: Kabhi Khushi kabhi Gham
    IMDB Link.............: Kabhi Khushi Kabhi Gham -2001
    
    Rip Details
    
    Source.................: DVD9 @DDR 
    Ripper..................: Joe
    Format.................: Matroska
    File size................:  1.45 GiB
    Duration................: 3h 29mn
    Overall bit rate.......: 992 Kbps
     
    
    Video
    
    Format                     : AVC
    Format profile          : [email protected]
    Duration                         : 3h 29mn
    Bit rate                         : 766 Kbps
    Width                            : 720 pixels
    Height                           : 304 pixels
    Display aspect ratio             : 2.35:1
    Frame rate                       : 24.000 fps
    Color space              : YUV
    Bit depth                  : 8 bits
    Scan type  : Progressive
    Bits/(Pixel*Frame)               : 0.146
    Stream size                      : 1.10 GiB 
    
    Writing library          : x264 core
    
     Audio
    
    Format                     : AC-3
    Duration                         : 3h 29mn
    Bit rate mode                    : Constant
    Bit rate                         : 224 Kbps
    Channel(s)                       : 6 channels
    Channel positions                : Front: L C R, Side: L R, LFE
    Sampling rate                    : 48.0 KHz
    Bit depth                        : 16 bits
    Compression mode                 : Lossy
    Stream size                      : 336 MiB (23%)


















    SINGLE LINK

    Code:
    http://www.fileserve.com/file/bTM8feM/Kabhi_Khushi_kabhi_Gham(2001).mkv
    Code:
    http://www.filesonic.com/file/1682807094/Kabhi Khushi kabhi Gham(2001).mkv
    Code:
    http://www.wupload.com/file/100709966/Kabhi Khushi kabhi Gham(2001).mkv

    450MB LINKS

    Code:
    http://www.fileserve.com/file/8ZYSGnD/Kabhi_Khushi_kabhi_Gham(2001).mkv.001
    http://www.fileserve.com/file/GHmTZD3/Kabhi_Khushi_kabhi_Gham(2001).mkv.002
    http://www.fileserve.com/file/CNehAkU/Kabhi_Khushi_kabhi_Gham(2001).mkv.003
    http://www.fileserve.com/file/nEusqWt/Kabhi_Khushi_kabhi_Gham(2001).mkv.004
    
    
    http://www.filesonic.com/file/1682794024/Kabhi Khushi kabhi Gham(2001).mkv.001
    http://www.filesonic.com/file/1682793994/Kabhi Khushi kabhi Gham(2001).mkv.002
    http://www.filesonic.com/file/1682794074/Kabhi Khushi kabhi Gham(2001).mkv.003
    http://www.filesonic.com/file/1682786514/Kabhi Khushi kabhi Gham(2001).mkv.004
    
    
    http://www.wupload.com/file/100648351/Kabhi Khushi kabhi Gham(2001).mkv.001
    http://www.wupload.com/file/100648379/Kabhi Khushi kabhi Gham(2001).mkv.002
    http://www.wupload.com/file/100648377/Kabhi Khushi kabhi Gham(2001).mkv.003
    http://www.wupload.com/file/100647515/Kabhi Khushi kabhi Gham(2001).mkv.004

 

 

Posting Permissions

  • You may not post new threads
  • You may not post replies
  • You may not post attachments
  • You may not edit your posts
  •