Results 1 to 1 of 1
  1. #1
    Super Member www.desirulez.net
    Join Date
    May 2011
    Posts
    240

    T

    Talking Joru Ka Ghulam (2000) Hindi - Dvd - Rip - Xvid

    Follow us on Social Media









    Joru Ka Ghulam (2000) Hindi - Dvd - Rip - Xvid




    Code:
    General
    Complete name                    : Joru_Ka_Ghulam.2000.Dvdrip.avi
    Format                           : AVI
    Format/Info                      : Audio Video Interleave
    File size                        : 1.37 GiB
    Duration                         : 3h 0mn
    Overall bit rate                 : 1 081 Kbps
    Writing application              : VirtualDubMod 1.5.10.3 | www.virtualdub-fr.org || (build 2550/release)
    Writing library                  : VirtualDubMod build 2550/release
    
    Video
    ID                               : 0
    Format                           : MPEG-4 Visual
    Format profile                   : Advanced [email protected]
    Format settings, BVOP            : 1
    Format settings, QPel            : No
    Format settings, GMC             : No warppoints
    Format settings, Matrix          : Custom
    Codec ID                         : XVID
    Codec ID/Hint                    : XviD
    Duration                         : 3h 0mn
    Bit rate                         : 954 Kbps
    Width                            : 640 pixels
    Height                           : 352 pixels
    Display aspect ratio             : 16:9
    Frame rate                       : 23.976 fps
    Color space                      : YUV
    Chroma subsampling               : 4:2:0
    Bit depth                        : 8 bits
    Scan type                        : Progressive
    Compression mode                 : Lossy
    Bits/(Pixel*Frame)               : 0.177
    Stream size                      : 1.21 GiB (88%)
    Writing library                  : XviD 1.2.0SMP (UTC 2006-01-08)
    
    Audio
    ID                               : 1
    Format                           : MPEG Audio
    Format version                   : Version 1
    Format profile                   : Layer 3
    Mode                             : Joint stereo
    Mode extension                   : MS Stereo
    Codec ID                         : 55
    Codec ID/Hint                    : MP3
    Duration                         : 3h 0mn
    Bit rate mode                    : Variable
    Bit rate                         : 115 Kbps
    Nominal bit rate                 : 128 Kbps
    Channel(s)                       : 2 channels
    Sampling rate                    : 48.0 KHz
    Compression mode                 : Lossy
    Stream size                      : 148 MiB (11%)
    Alignment                        : Aligned on interleaves
    Interleave, duration             : 24 ms (0.58 video frame)
    Interleave, preload duration     : 519 ms
    Writing library                  : LAME3.97b
    Encoding settings                : -m j -V 4 -q 2 -lowpass 17 --abr 128
    Language                         : Hindi / Hindi







    FileServe:-
    Code:
    http://www.fileserve.com/file/SJHMSGx/Joru_Ka_Ghulam.2000.Dvdrip.avi
    FileSonic:-
    Code:
    http://www.filesonic.com/file/1162468031/Joru_Ka_Ghulam.2000.Dvdrip.avi
    UploadStation:-
    Code:
    http://www.uploadstation.com/file/53KD63n/Joru_Ka_Ghulam.2000.Dvdrip.avi
    WUpload:-
    Code:
    http://www.wupload.com/file/12506141/Joru_Ka_Ghulam.2000.Dvdrip.avi
    You are Allowed to Share My Post and My Links anywhere you want 2

 

 

Posting Permissions

  • You may not post new threads
  • You may not post replies
  • You may not post attachments
  • You may not edit your posts
  •