Results 1 to 1 of 1
  1. #1
    dR Rockers www.desirulez.net
    Join Date
    Aug 2011
    Posts
    5,859

    T

    Default Jodi No1 (2001) - 700MB - 1CD - DvDRip - x264 - snaink - {DUS}

    Follow us on Social Media




    300


    336




    Jodi No 1 (2001)

    ************************************************** ***********
    Jodi No 1 (2001) - 1 CD Dvdrip - x264 - snaink - DUS
    ************************************************** ***********








    Code:
    Code:
         Ripper                           : snaink
    Source                           : DVD9 @ TDBB
    
    General
    
    Format                           : Matroska
    File size                        : 699 MiB
    Duration                         : 2h 33mn
    Overall bit rate                 : 638 Kbps
    Encoded date                     : UTC 2010-12-06 03:22:29
    
    Video
    Format                           : AVC
    Format/Info                      : Advanced Video Codec
    Format profile                   : [email protected]
    Format settings, CABAC           : Yes
    Format settings, ReFrames        : 4 frames
    Muxing mode                      : Container [email protected]
    Codec ID                         : V_MPEG4/ISO/AVC
    Duration                         : 2h 33mn
    Bit rate                         : 508 Kbps
    Width                            : 688 pixels
    Height                           : 368 pixels
    Display aspect ratio             : 1.870
    Frame rate                       : 29.970 fps
    Color space                      : YUV
    Chroma subsampling               : 4:2:0
    Bit depth                        : 8 bits
    Scan type                        : Progressive
    Bits/(Pixel*Frame)               : 0.067
    Stream size                      : 545 MiB (78%)
    Writing library                  : x264 core 98 r1649 c54c47d
    
    Audio
    Format                           : AC-3
    Format/Info                      : Audio Coding 3
    Mode extension                   : CM (complete main)
    Codec ID                         : A_AC3
    Duration                         : 2h 33mn
    Bit rate mode                    : Constant
    Bit rate                         : 128 Kbps
    Channel(s)                       : 6 channels
    Channel positions                : Front: L C R, Side: L R, LFE
    Sampling rate                    : 48.0 KHz
    Stream size                      : 140 MiB (20%) 
     
    Subtitles: None Cast: Sanjay Dutt ... Jai Govinda ... Veeru Twinkle Khanna ... Tina Monica Bedi ... Rinki Rai Anupam Kher ... Rai Bahadur Ashish Vidyarthi ... Sir John Mukesh Rishi ... Baburao Sayaji Shinde ... Thakral Shakti Kapoor ... Insp. Shakti Singh (Mumbai) Hans Raj Hans Supriya Karnik ... Shanno Rai Pooja Batra ... Casino Dancer Rajat Bedi ... Tiger Aashif Sheikh ... Vikramjit R. Singh (as Asif Sheikh) Ajit Vachani ... Raman Rai (as Ajit Vachhani) Synopsis: Rai Bahadur lives a wealthy lifestyle in Panjim, Goa, along with three brothers, Raman, Kamal, and Ashok along with their respective wives and children. He also has a sister, Shanno, and a daughter, Rinki, who is of marriageable age. Since his business is not doing too well, he asks his US-based friend, Ranjit, for assistance. In response, Ranjit sends his son, Vikramjit, to assist Rai. Vikramjit arrives at the Rai household along with his Secretary and close friend, Veeru, and soon both get involved in assisting the Rai business get back on it's feet. What Rai does not know is that Vikramjit & Veeru are not who they claim to be, but are actually Jai and Veeru, wanted by the Bombay Police and are on India's Most Wanted Criminals. Watch what happens when their photos are telecast on National TV, and the impact this has on the entire Rai clan. imdb Link: Jodi No.1 (2001) - IMDb



    Code:
    http://www.fileserve.com/file/fGUre7Z/JodiNo1(2001)[snaink].mkv
    Code:
    http://www.filesonic.com/file/1687423744/JodiNo1(2001)[snaink].mkv
    Code:
    http://www.wupload.com/file/103628398/JodiNo1(2001)[snaink].mkv

 

 

Posting Permissions

  • You may not post new threads
  • You may not post replies
  • You may not post attachments
  • You may not edit your posts
  •