Results 1 to 1 of 1
  1. #1
    dR Rockers www.desirulez.net
    Join Date
    Aug 2011
    Posts
    5,859

    T

    Default Jigar (1992) - 1.47GB - 2CD - DvDRip - x264 - Ac3 - [TDBB]

    Follow us on Social Media











    Jigar (1992) 2CD DvD Rip x264 Ac3 Adi Jawed [TDBB]












    Code:
    General
    Complete name                            : Jigar (1992)  2CD DvD Rip x264 Ac3 Adi Jawed [TDBB]
    Format                                   : Matroska
    Format version                           : Version 2
    File size                                : 1.47 GiB
    Duration                                 : 2h 56mn
    Overall bit rate                         : 1 193 Kbps
    Ripper                                   : Adi Jawed
    Source                                   : DVD 9
    
    Video
    ID                                       : 2
    Format                                   : AVC
    Format/Info                              : Advanced Video Codec
    Format profile                           : [email protected]
    Format settings, CABAC                   : Yes
    Format settings, ReFrames                : 4 frames
    Muxing mode                              : Header stripping
    Codec ID                                 : V_MPEG4/ISO/AVC
    Duration                                 : 2h 56mn
    Bit rate                                 : 968 Kbps
    Width                                    : 720 pixels
    Height                                   : 304 pixels
    Display aspect ratio                     : 2.35:1
    Frame rate                               : 23.976 fps
    Color space                              : YUV
    Chroma subsampling                       : 4:2:0
    Bit depth                                : 8 bits
    Scan type                                : Progressive
    Bits/(Pixel*Frame)                       : 0.184
    Stream size                              : 1.17 GiB (79%)
    
    Audio
    ID                                       : 1
    Format                                   : AC-3
    Format/Info                              : Audio Coding 3
    Mode extension                           : CM (complete main)
    Muxing mode                              : Header stripping
    Codec ID                                 : A_AC3
    Duration                                 : 2h 56mn
    Bit rate mode                            : Constant
    Bit rate                                 : 224 Kbps
    Channel(s)                               : 2 channels
    Channel positions                        : Front: L R
    Sampling rate                            : 48.0 KHz
    Bit depth                                : 16 bits
    Compression mode                         : Lossy
    Stream size                              : 283 MiB (19%)




















    SINGLE LINK


    Code:
    http://www.fileserve.com/file/RRBM9Nz/Jigar (1992)  2CD DvD Rip x264 Ac3 Adi Jawed [TDBB].mkv

    Code:
    http://www.filesonic.com/file/2403191621/Jigar (1992)  2CD DvD Rip x264 Ac3 Adi Jawed [TDBB].mkv

    Code:
    http://www.wupload.com/file/334737374/Jigar (1992)  2CD DvD Rip x264 Ac3 Adi Jawed [TDBB].mkv



    450MB LINKS


    Code:
    http://www.filesonic.com/file/2403188261/Jigar (1992)  2CD DvD Rip x264 Ac3 Adi Jawed [TDBB].mkv.001
    http://www.filesonic.com/file/2403188081/Jigar (1992)  2CD DvD Rip x264 Ac3 Adi Jawed [TDBB].mkv.002
    http://www.filesonic.com/file/2403191791/Jigar (1992)  2CD DvD Rip x264 Ac3 Adi Jawed [TDBB].mkv.003
    http://www.filesonic.com/file/2403188191/Jigar (1992)  2CD DvD Rip x264 Ac3 Adi Jawed [TDBB].mkv.004
    
    
    
    http://www.fileserve.com/file/jbTuBRt/Jigar (1992)  2CD DvD Rip x264 Ac3 Adi Jawed [TDBB].mkv.001
    http://www.fileserve.com/file/mKfPMaH/Jigar (1992)  2CD DvD Rip x264 Ac3 Adi Jawed [TDBB].mkv.002
    http://www.fileserve.com/file/MkyK9hk/Jigar (1992)  2CD DvD Rip x264 Ac3 Adi Jawed [TDBB].mkv.003
    http://www.fileserve.com/file/CBcTzge/Jigar (1992)  2CD DvD Rip x264 Ac3 Adi Jawed [TDBB].mkv.004
    
    
    
    http://www.wupload.com/file/334357803/Jigar (1992)  2CD DvD Rip x264 Ac3 Adi Jawed [TDBB].mkv.001
    http://www.wupload.com/file/334737315/Jigar (1992)  2CD DvD Rip x264 Ac3 Adi Jawed [TDBB].mkv.002
    http://www.wupload.com/file/334357815/Jigar (1992)  2CD DvD Rip x264 Ac3 Adi Jawed [TDBB].mkv.003
    http://www.wupload.com/file/334357869/Jigar (1992)  2CD DvD Rip x264 Ac3 Adi Jawed [TDBB].mkv.004


 

 

Posting Permissions

  • You may not post new threads
  • You may not post replies
  • You may not post attachments
  • You may not edit your posts
  •