Results 1 to 1 of 1
  1. #1
    dR Rockers www.desirulez.net
    Join Date
    Aug 2011
    Posts
    5,859

    T

    Default Inteha (2003) - 1.20GB - DVDRip - Divx - DJGAURAV

    Follow us on Social Media









    INTEHA - 2003 - DIVX - DJGAURAV



    After her father's death, Nandini (Vidya Malavade) is forced to leave her life in Koti and move to Mumbai to take care of her younger stepsister Tina (Nauheed Cyrusi). Nandini, the illegitimate daughter, agreed to be Tina's guardian while her father was on his deathbed, but received no inheritance. However, as Tina's guardian, she was given permission to choose Tina's life partner, after which Tina could officially collect her inheritance.

    Soon afterwards, a stranger named Ranbir Oberoi (Ashmit Patel) enters the naive Tina's life and they begin a romance. Despite initially approving of Ranbir, Nandini eventually comes to suspect him and believe he has a dark side. The rest of the film explores Nandini's attempts to eliminate Ranbir from Tina's life permanently, much to the chagrin of both Tina and Ranbir.


    Technical Information

    Code:
    General
    Complete name : Inteha (2003) HQ -DJGAURAV.divx
    Format : AVI
    Format/Info : Audio Video Interleave
    File size : 1.20 GiB
    Duration : 2h 31mn
    Overall bit rate : 1 138 Kbps

    Video
    ID : 0
    Format : MPEG-4 Visual
    Format settings, BVOP : 1
    Format settings, QPel : No
    Format settings, GMC : No warppoints
    Format settings, Matrix : Default (H.263)
    Muxing mode : Packed bitstream
    Codec ID : DX50
    Codec ID/Hint : DivX 5
    Duration : 2h 31mn
    Bit rate : 999 Kbps
    Width : 704 pixels
    Height : 386 pixels
    Display aspect ratio : 16:9
    Frame rate : 29.970 fps
    Color space : YUV
    Chroma subsampling : 4:2:0
    Bit depth : 8 bits
    Scan type : Progressive
    Compression mode : Lossy
    Bits/(Pixel*Frame) : 0.123
    Stream size : 1.05 GiB (88%)
    Title : Video
    Writing library : DivX 3330

    Audio
    ID : 1
    Format : MPEG Audio
    Format version : Version 1
    Format profile : Layer 3
    Mode : Joint stereo
    Mode extension : MS Stereo
    Codec ID : 55
    Codec ID/Hint : MP3
    Duration : 2h 31mn
    Bit rate mode : Constant
    Bit rate : 128 Kbps
    Channel(s) : 2 channels
    Sampling rate : 44.1 KHz
    Compression mode : Lossy
    Stream size : 138 MiB (11%)
    Alignment : Split accross interleaves
    Interleave, duration : 33 ms (1.00 video frame)
    Interleave, preload duration : 500 ms
    Title : Audio


    Screen Shots


























    Code:
    http://www.fileserve.com/file/EGX9V9r/Inteha (2003) HQ -DJGAURAV.divx
    Code:
    http://www.filesonic.com/file/3946030734/Inteha (2003) HQ -DJGAURAV.divx


    Code:
    http://www.wupload.com/file/2527193867/Inteha (2003) HQ -DJGAURAV.divx

 

 

Posting Permissions

  • You may not post new threads
  • You may not post replies
  • You may not post attachments
  • You may not edit your posts
  •