Results 1 to 1 of 1
  1. #1
    dR Rockers www.desirulez.net
    Join Date
    Aug 2011
    Posts
    5,859

    T

    Default Hu Tu Tu (1999) - 1.37GB - 2CD - XViD - 6Channels - ESubs - {ExD|XMR}

    Follow us on Social Media











    *File Info*

    Quote
    Format : AVI
    Format/Info : Audio Video Interleave
    File size : 1.37 GiB
    Duration : 2h 38mn
    Overall bit rate : 1 237 Kbps
    Writing application : VirtualDubMod 1.5.10.2 (build 2542/release)
    Writing library : VirtualDubMod build 2542/release

    Video
    ID : 0
    Format : MPEG-4 Visual
    Format profile : Advanced [email protected]
    Format settings, BVOP : 2
    Format settings, QPel : Yes
    Format settings, GMC : No warppoints
    Format settings, Matrix : Custom
    Codec ID : XVID
    Codec ID/Hint : XviD
    Duration : 2h 38mn
    Bit rate : 1 004 Kbps
    Width : 640 pixels
    Height : 288 pixels
    Display aspect ratio : 2.222
    Frame rate : 23.976 fps
    Color space : YUV
    Chroma subsampling : 4:2:0
    Bit depth : 8 bits
    Scan type : Progressive
    Compression mode : Lossy
    Bits/(Pixel*Frame) : 0.227
    Stream size : 1.11 GiB (81%)
    Writing library : XviD 1.2.1 (UTC 2008-12-04)

    Audio
    ID : 1
    Format : AC-3
    Format/Info : Audio Coding 3
    Mode extension : CM (complete main)
    Codec ID : 2000
    Duration : 2h 38mn
    Bit rate mode : Constant
    Bit rate : 224 Kbps
    Channel(s) : 6 channels
    Channel positions : Front: L C R, Side: L R, LFE
    Sampling rate : 48.0 KHz
    Bit depth : 16 bits
    Compression mode : Lossy
    Stream size : 253 MiB (18%)
    Alignment : Split accross interleaves
    Interleave, duration : 42 ms (1.00 video frame)
    Interleave, preload duration : 500 ms



    Ripper Myself(Ajit)
    Source DVD9(MoserBaer)
    Subtitle English

    XMR Encode! Enjoy! Another hard to find movie. Bad colours, did some Tweaks and usual exotic filtering. My favorite song from d movie ... "Chaai Chap Chaai"

    *Movie Info*

    Hu Tu Tu (1999) - IMDb
    Hu Tu Tu - Wikipedia, the free encyclopedia


    Panna is the only daughter of politician Maltidevi. Panna is very critical of her mother, when she decides to separate from her dad, and asked Chief Minister Sawantrao Gadre to move in with them, for political reasons. Sawantrao has been using Maltidevi to win his election, which he does. Malti avenges this humiliation, wins the next election, and has Sawantrao killed. Malti then becomes the new Chief Minister. The main thorns on her side are Bhau, the leader of the downtrodden lower caste dalits, and her very daughter, who is very friendly with Bhau. One day Panna is abducted by Aditya and his group of revolutionaries, and held by them. It is there that Panna learns about the atrocities committed by her mom in the name of politics, and it is then she must decide whether to be loyal to her mom, or take the side of Aditya and the revolutionaries.

    *Screenshots*
















    NOTE: IF YOUR THINKING Of BUYING PREMIUM..PLEASE GET IT FROM FILESONIC[my link Below]
    IF YOUR DOWNLOADING NORMALLY PLEASE USE OTHER HOSTS




    SINGLE LINK

    Code:
    http://www.filesonic.com/file/3985578704/Hu Tu Tu 2CD XViD -=XMR=-.avi


    Code:
    http://www.fileserve.com/file/zm4f4Ke/Hu Tu Tu 2CD XViD -=XMR=-.avi
    Code:
    http://www.wupload.com/file/2537042052/Hu Tu Tu 2CD XViD -=XMR=-.avi


    450MB LINKS

    Code:
    http://www.filesonic.com/file/3985556904/Hu Tu Tu 2CD XViD -=XMR=-.avi.001
    http://www.filesonic.com/file/3985560094/Hu Tu Tu 2CD XViD -=XMR=-.avi.002
    http://www.filesonic.com/file/3985560174/Hu Tu Tu 2CD XViD -=XMR=-.avi.003
    http://www.filesonic.com/file/3985542604/Hu Tu Tu 2CD XViD -=XMR=-.avi.004
    http://www.filesonic.com/file/3985542624/Hu Tu Tu 2CD XViD -=XMR=-.srt
    
    
    http://www.fileserve.com/file/BC7A6T3/Hu Tu Tu 2CD XViD -=XMR=-.avi.001
    http://www.fileserve.com/file/RYpbh6h/Hu Tu Tu 2CD XViD -=XMR=-.avi.002
    http://www.fileserve.com/file/jQHuPbN/Hu Tu Tu 2CD XViD -=XMR=-.avi.003
    http://www.fileserve.com/file/bJ8jyAg/Hu Tu Tu 2CD XViD -=XMR=-.avi.004
    http://www.fileserve.com/file/6ezCqFS/Hu Tu Tu 2CD XViD -=XMR=-.srt
    
    
    http://www.wupload.com/file/2537040652/Hu Tu Tu 2CD XViD -=XMR=-.avi.001
    http://www.wupload.com/file/2537040807/Hu Tu Tu 2CD XViD -=XMR=-.avi.002
    http://www.wupload.com/file/2537040687/Hu Tu Tu 2CD XViD -=XMR=-.avi.003
    http://www.wupload.com/file/2537040662/Hu Tu Tu 2CD XViD -=XMR=-.avi.004
    http://www.wupload.com/file/2537040672/Hu Tu Tu 2CD XViD -=XMR=-.srt

 

 

Posting Permissions

  • You may not post new threads
  • You may not post replies
  • You may not post attachments
  • You may not edit your posts
  •