Results 1 to 1 of 1
  1. #1
    Super Member www.desirulez.net
    Join Date
    Aug 2011
    Posts
    385

    T

    Post Haasil [2003] - 2.18GB - DVDRip - 720p - Upscaled - x264 - AC3 - 6 - Dus

    Follow us on Social Media







    Haasil [2003] - 2.18GB - DVDRip - 720p - Upscaled - x264 - AC3 - 6 - Dus




    ------------------------------------------------------------------
    Haasil [2003] DVDRip Upscaled x264 AC3 - 6 @ Dus
    ------------------------------------------------------------------


    RELEASE NOTES

    General
    Unique ID : 232460608035240540431149039467917491456 (0xAEE248DAED2F89908DDE145E51983D00)
    Complete name : E:\Ripped\Haasil [2003] DVDRip Upscaled x264 AC3 - 6 @ Dus\Haasil [2003] DVDRip Upscaled x264 AC3 - 6 @ Dus.mkv
    Format : Matroska
    Format version : Version 2
    File size : 2.19 GiB
    Duration : 2h 40mn
    Overall bit rate mode : Variable
    Overall bit rate : 1 952 Kbps
    Encoded date : UTC 2011-12-06 11:12:49
    Writing application : mkvmerge v4.9.1 ('Ich will') built on Jul 11 2011 23:53:15
    Writing library : libebml v1.2.1 + libmatroska v1.1.1

    Video
    ID : 1
    Format : AVC
    Format/Info : Advanced Video Codec
    Format profile : [email protected]
    Format settings, CABAC : Yes
    Format settings, ReFrames : 3 frames
    Codec ID : V_MPEG4/ISO/AVC
    Duration : 2h 40mn
    Bit rate mode : Variable
    Bit rate : 1 694 Kbps
    Maximum bit rate : 40.0 Mbps
    Width : 1 280 pixels
    Height : 544 pixels
    Display aspect ratio : 2.35:1
    Frame rate : 23.976 fps
    Color space : YUV
    Chroma subsampling : 4:2:0
    Bit depth : 8 bits
    Scan type : Progressive
    Bits/(Pixel*Frame) : 0.101
    Stream size : 1.86 GiB (85%)
    Writing library : x264 core 116 r2074 2641b9e
    Encoding settings : cabac=1 / ref=3 / deblock=1:-1:-1 / analyse=0x1:0x111 / me=hex / subme=5 / psy=1 / psy_rd=1.00:0.15 / mixed_ref=1 / me_range=16 / chroma_me=1 / trellis=0 / 8x8dct=0 / cqm=0 / deadzone=21,11 / fast_pskip=1 / chroma_qp_offset=0 / threads=3 / sliced_threads=0 / slices=4 / nr=0 / decimate=1 / interlaced=0 / bluray_compat=1 / constrained_intra=0 / bframes=3 / b_pyramid=1 / b_adapt=1 / b_bias=0 / direct=2 / weightb=1 / open_gop=1 / weightp=1 / keyint=24 / keyint_min=2 / scenecut=40 / intra_refresh=0 / rc_lookahead=24 / rc=2pass / mbtree=1 / bitrate=1694 / ratetol=1.0 / qcomp=0.60 / qpmin=10 / qpmax=51 / qpstep=4 / cplxblur=20.0 / qblur=0.5 / vbv_maxrate=40000 / vbv_bufsize=30000 / nal_hrd=vbr / ip_ratio=1.40 / aq=1:1.00
    Language : English

    Audio
    ID : 2
    Format : AC-3
    Format/Info : Audio Coding 3
    Mode extension : CM (complete main)
    Codec ID : A_AC3
    Duration : 2h 40mn
    Bit rate mode : Constant
    Bit rate : 256 Kbps
    Channel(s) : 6 channels
    Channel positions : Front: L C R, Side: L R, LFE
    Sampling rate : 48.0 KHz
    Bit depth : 16 bits
    Compression mode : Lossy
    Stream size : 293 MiB (13%)








    SINGLE LINK

    Code:
    http://www.filesonic.com/file/4198842695/Haasil [2003] DVDRip Upscaled x264 AC3 - 6 @ Dus.mkv
    Code:
    http://filepost.com/files/e2ec7d44/Haasil_[2003][email protected]_Dus.mkv
    450MB LINKS

    Code:
    http://www.filesonic.com/file/4198842705/Haasil [2003] DVDRip Upscaled x264 AC3 - 6 @ Dus.mkv.001
    http://www.filesonic.com/file/4198842715/Haasil [2003] DVDRip Upscaled x264 AC3 - 6 @ Dus.mkv.002
    http://www.filesonic.com/file/4198842725/Haasil [2003] DVDRip Upscaled x264 AC3 - 6 @ Dus.mkv.003
    http://www.filesonic.com/file/4198845685/Haasil [2003] DVDRip Upscaled x264 AC3 - 6 @ Dus.mkv.004
    http://www.filesonic.com/file/4198845695/Haasil [2003] DVDRip Upscaled x264 AC3 - 6 @ Dus.mkv.005
    Code:
    http://filepost.com/files/bb884dd6/Haasil_[2003][email protected]_Dus.mkv.001
    http://filepost.com/files/acfcf648/Haasil_[2003][email protected]_Dus.mkv.002
    http://filepost.com/files/81f1d788/Haasil_[2003][email protected]_Dus.mkv.003
    http://filepost.com/files/18fd19b9/Haasil_[2003][email protected]_Dus.mkv.004
    http://filepost.com/files/efebedc7/Haasil_[2003][email protected]_Dus.mkv.005

 

 

Posting Permissions

  • You may not post new threads
  • You may not post replies
  • You may not post attachments
  • You may not edit your posts
  •